Final Fantasy VII: Advent Children (2005) m-720p BDRip Audio Japonés [Subt. Esp] (Animación. Ciencia ficción)

Maestro Revolver

Administrador
Registro
9 Ago 2012
Mensajes
3.157
Reacciones (ptje)
55.208


Advent-Children.jpg




FichaTecnica.jpg


TÍTULO ORIGINAL: Final Fantasy VII: Advent Children (FFVII Advent Children Complete)
AÑO: 2005
DURACIÓN: 100 min.
PAÍS: Japón
DIRECTOR: Tetsuya Nomura, Takeshi Nozue
GUIÓN: Tetsuya Nomura, Kazushige Nojima
REPARTO: Animation
PRODUCTORA: Visual Works / Square Enix
GÉNERO: Animación. Ciencia ficción. Fantástico. Acción | Videojuego. Secuela
imdb-logo.png
: http://www.imdb.com/title/tt0385700/




Sinopsis.jpg


Esta película generada íntegramente por ordenador, es la continuación del videojuego de Square Enix; Final Fantasy VII y forma parte de una estrategía de la propia compañía para completar la historia de la saga. El argumento nos sitúa dos años después de Final Fantasy VII. Cloud Strife, el protagonista, vive solo en la iglesia de Aeris y está afectado por una extraña enfermedad, el GeoStigma, un virus que lo está matando poco a poco dejándole sin energía...




Trailer.jpg






Capturas.jpg


1.jpg


2.jpg


3.jpg


4.jpg


5.jpg


6.jpg


La pelicula NO tiene ninguna marca... solo colocamos el nombre de esta web en las capturas




MediaInfo.jpg


Código:
General
Format                                   : Matroska
Format version                           : Version 2
File size                                : 3.00 GiB
Duration                                 : 2h 6mn
Overall bit rate                         : 3 397 Kbps
Movie name                               : www.club-hd.com
Encoded date                             : UTC 2013-09-13 02:27:53
Writing application                      : mkvmerge v5.7.0 ('The Whirlwind') built on Jul  8 2012 20:08:51
Writing library                          : libebml v1.2.3 + libmatroska v1.3.0

Video
ID                                       : 1
Format                                   : AVC
Format/Info                              : Advanced Video Codec
Format profile                           : [email protected]
Format settings, CABAC                   : Yes
Format settings, ReFrames                : 9 frames
Codec ID                                 : V_MPEG4/ISO/AVC
Duration                                 : 2h 6mn
Bit rate                                 : 2 755 Kbps
Width                                    : 1 280 pixels
Height                                   : 720 pixels
Display aspect ratio                     : 16:9
Frame rate mode                          : Constant
Frame rate                               : 23.976 fps
Color space                              : YUV
Chroma subsampling                       : 4:2:0
Bit depth                                : 8 bits
Scan type                                : Progressive
Bits/(Pixel*Frame)                       : 0.125
Stream size                              : 2.38 GiB (79%)
Title                                    : www.club-hd.com
Writing library                          : x264 core 129 r2245 bc13772
Language                                 : Japanese
Default                                  : Yes
Forced                                   : No

Audio
ID                                       : 2
Format                                   : AC-3
Format/Info                              : Audio Coding 3
Mode extension                           : CM (complete main)
Format settings, Endianness              : Big
Codec ID                                 : A_AC3
Duration                                 : 2h 6mn
Bit rate mode                            : Constant
Bit rate                                 : 640 Kbps
Channel(s)                               : 6 channels
Channel positions                        : Front: L C R, Side: L R, LFE
Sampling rate                            : 48.0 KHz
Bit depth                                : 16 bits
Compression mode                         : Lossy
Stream size                              : 579 MiB (19%)
Title                                    : www.club-hd.com
Language                                 : Japanese
Default                                  : Yes
Forced                                   : No

Text
ID                                       : 3
Format                                   : UTF-8
Codec ID                                 : S_TEXT/UTF8
Codec ID/Info                            : UTF-8 Plain Text
Language                                 : Spanish
Default                                  : Yes
Forced                                   : No

Menu
00:00:00.000                             : en:Chapter 1
00:01:29.715                             : en:Chapter 2
00:02:51.296                             : en:Chapter 3
00:04:27.476                             : en:Chapter 4
00:07:12.557                             : en:Chapter 5
00:10:17.867                             : en:Chapter 6
00:12:34.671                             : en:Chapter 7
00:15:08.199                             : en:Chapter 8
00:21:31.457                             : en:Chapter 9
00:23:20.024                             : en:Chapter 10
00:24:50.364                             : en:Chapter 11
00:29:15.504                             : en:Chapter 12
00:34:00.872                             : en:Chapter 13
00:38:15.627                             : en:Chapter 14
00:39:38.376                             : en:Chapter 15
00:42:12.822                             : en:Chapter 16
00:43:26.604                             : en:Chapter 17
00:44:50.897                             : en:Chapter 18
00:46:30.454                             : en:Chapter 19
00:49:15.369                             : en:Chapter 20
00:50:19.266                             : en:Chapter 21
00:53:41.552                             : en:Chapter 22
00:58:08.485                             : en:Chapter 23
00:59:24.644                             : en:Chapter 24
01:01:51.249                             : en:Chapter 25
01:03:32.517                             : en:Chapter 26
01:05:53.491                             : en:Chapter 27
01:08:57.967                             : en:Chapter 28
01:11:13.769                             : en:Chapter 29
01:13:18.561                             : en:Chapter 30
01:16:24.705                             : en:Chapter 31
01:19:11.705                             : en:Chapter 32
01:19:39.191                             : en:Chapter 33
01:21:55.786                             : en:Chapter 34
01:22:57.389                             : en:Chapter 35
01:29:58.685                             : en:Chapter 36
01:32:17.323                             : en:Chapter 37
01:35:30.808                             : en:Chapter 38
01:43:27.785                             : en:Chapter 39
01:45:04.298                             : en:Chapter 40
01:49:07.583                             : en:Chapter 41
01:50:17.611                             : en:Chapter 42
01:51:33.770                             : en:Chapter 43
01:55:13.907                             : en:Chapter 44
02:00:42.235                             : en:Chapter 45




Descarga.jpg



MEGA.jpg

Tenemos TODO el material de Club-HD disponible por Mega, enlaces 100% activos y online hasta la fecha

Llévate tus cuentas Mega PRO III gratis con tu membresía VIP!
Todos los posts vivos con links de Mega.
Todo el material de Club-HD desbloqueado y sin publicidad.

Obtén más información sobre nuestras Membresías VIP


UPLOADED_BANNER.png

Para ver este contenido oculto, debes dar click en el botón"Like", o cualquiera de las otras reacciones:

Me Gusta Me Gusta, Me Encanta Me Encanta, Jaja Jaja, Wow Wow, Triste Triste, Molesto Molesto



 
Última edición por un moderador:
Volver