Fire with Fire (2012) m-720p Audio Inglés [Subt. Esp-Ing] (Thriller. Drama)

Maestro Revolver

Well-known member
Miembro del Staff
Administrador
Registro
9 Ago 2012
Mensajes
3.569
Reacciones
59.471
Puntos
113

Reputation:









TÍTULO ORIGINAL: Fire with Fire
AÑO: 2012
DURACIÓN: 97 min.
PAÍS: USA
DIRECTOR: David Barrett
GUIÓN: Tom O'Connor
REPARTO: Josh Duhamel, Rosario Dawson, Bruce Willis, Vincent D'Onofrio, Curtis ‘50 Cent’ Jackson, Quinton 'Rampage' Jackson, Vinnie Jones, Richard Schiff, Bonnie Somerville
PRODUCTORA: Cheetah Vision / Emmett/Furla Films
GÉNERO: Thriller. Drama
http://www.imdb.com/title/tt1925431/






Un bombero fuera de servicio es testigo de un asesinato a manos de una banda de mafiosos. Entrará en el programa de protección de testigos hasta que testifique, pero no conseguirá ocultarse por mucho tiempo de la banda por lo que decidirá actuar por su cuenta e ir a por el cabecilla para proteger a la mujer que ama.
























La pelicula NO tiene ninguna marca... solo colocamos el nombre de esta web en las capturas






Código:
General
Format                           : Matroska
Format version                   : Version 2
File size                        : 2.10 GiB
Duration                         : 1h 37mn
Overall bit rate                 : 3 089 Kbps
Movie name                       : www.club-hd.com
Encoded date                     : UTC 2012-10-27 00:32:50
Writing application              : mkvmerge v5.7.0 ('The Whirlwind') built on Jul  8 2012 20:08:51
Writing library                  : libebml v1.2.3 + libmatroska v1.3.0

Video
ID                               : 1
Format                           : AVC
Format/Info                      : Advanced Video Codec
Format profile                   : High@L4.1
Format settings, CABAC           : Yes
Format settings, ReFrames        : 8 frames
Codec ID                         : V_MPEG4/ISO/AVC
Duration                         : 1h 37mn
Bit rate                         : 2 640 Kbps
Width                            : 1 280 pixels
Height                           : 538 pixels
Display aspect ratio             : 2.40:1
Frame rate                       : 23.976 fps
Color space                      : YUV
Chroma subsampling               : 4:2:0
Bit depth                        : 8 bits
Scan type                        : Progressive
Bits/(Pixel*Frame)               : 0.160
Stream size                      : 1.76 GiB (84%)
Title                            : www.club-hd.com
Writing library                  : x264 core 128 r2216 198a7ea
Language                         : English
Default                          : Yes
Forced                           : No

Audio
ID                               : 2
Format                           : AC-3
Format/Info                      : Audio Coding 3
Mode extension                   : CM (complete main)
Codec ID                         : A_AC3
Duration                         : 1h 37mn
Bit rate mode                    : Constant
Bit rate                         : 448 Kbps
Channel(s)                       : 6 channels
Channel positions                : Front: L C R, Side: L R, LFE
Sampling rate                    : 48.0 KHz
Bit depth                        : 16 bits
Compression mode                 : Lossy
Stream size                      : 313 MiB (15%)
Title                            : www.club-hd.com
Language                         : English
Default                          : Yes
Forced                           : No

Text #1
ID                               : 3
Format                           : UTF-8
Codec ID                         : S_TEXT/UTF8
Codec ID/Info                    : UTF-8 Plain Text
Language                         : Spanish
Default                          : Yes
Forced                           : No

Text #2
ID                               : 4
Format                           : UTF-8
Codec ID                         : S_TEXT/UTF8
Codec ID/Info                    : UTF-8 Plain Text
Language                         : English
Default                          : No
Forced                           : No

Menu
00:00:00.000                     : en:Chapter 1
00:03:36.091                     : en:Chapter 2
00:08:34.013                     : en:Chapter 3
00:16:14.765                     : en:Chapter 4
00:20:42.283                     : en:Chapter 5
00:26:58.242                     : en:Chapter 6
00:31:47.614                     : en:Chapter 7
00:38:16.419                     : en:Chapter 8
00:41:43.710                     : en:Chapter 9
00:45:02.783                     : en:Chapter 10
00:49:18.622                     : en:Chapter 11
00:56:32.180                     : en:Chapter 12
01:00:33.046                     : en:Chapter 13
01:05:14.119                     : en:Chapter 14
01:12:39.188                     : en:Chapter 15
01:23:30.339                     : en:Chapter 16










Enlaces de Mega y Fireload solo disponibles para Miembros VIP

Compra tu Membresía VIP y apoya a Club-HD!

ATENCIÓN! Tenemos TODO el material de Club-HD disponible por Mega y Fireload, enlaces 100% activos y online hasta la fecha

Llévate tus cuentas Mega PRO II gratis con tu membresía VIP!
Todos los posts vivos con links de Mega y Fireload.
Todo el material de Club-HD desbloqueado y sin publicidad.

Click Aquí para más información.




Enlaces de Mega y Fireload solo disponibles para Miembros VIP

Compra tu Membresía VIP y apoya a Club-HD!

ATENCIÓN! Tenemos TODO el material de Club-HD disponible por Mega y Fireload, enlaces 100% activos y online hasta la fecha

Llévate tus cuentas Mega PRO II gratis con tu membresía VIP!
Todos los posts vivos con links de Mega y Fireload.
Todo el material de Club-HD desbloqueado y sin publicidad.

Click Aquí para más información.


Para ver este contenido oculto, debes dar click en una de las siguientes reacciones : Like Like, Love Love, Haha Haha, Wow Wow, Sad Sad, Angry Angry

 
Última edición:

Omar Herrera

Well-known member
Miembro del Staff
Súper Moderador
Registro
27 Ago 2012
Mensajes
1.234
Reacciones
326
Puntos
83
Edad
32
Ubicación
Managua

Reputation:

Esta si me la llevo!! :aplausos:
Gracias amigo Revolver, muchisimas gracias Maestro :LXR:
Desc_g_
 

Mate78

Ladron de mi cerebro
Miembro del Staff
Súper Moderador
Registro
27 Ago 2012
Mensajes
1.237
Reacciones
924
Puntos
113

Reputation:

tremendooooo , ya tenemos peli para el finde , gracias señor bestia !!!!:LXR:
 

marve

New member
Registro
29 Ago 2012
Mensajes
93
Reacciones
2
Puntos
0
Edad
38

Reputation:

Descargando gracias por el aporte..............
 

gservin

New member
Registro
31 Ago 2012
Mensajes
61
Reacciones
3
Puntos
0

Reputation:

se ve interesante saldrá en audio latino?
muchas gracias
 

Usuarios Que Están Viendo Este Tema (Total: 1, Miembros: 0, Invitados: 1)

Arriba