Foo Fighters - Live at Wembley Stadium (2008) 720p BRRip [AC3 5.1] (Concierto)

Maestro Revolver

Administrador
Registro
9 Ago 2012
Mensajes
3.157
Reacciones (ptje)
55.166

Foo-Fighters-L-a-W+.jpg





Sinopsis.jpg


Live At Wembley Stadium es un DVD en vivo de la banda Foo Fighters filmado durante los dos shows llevados a cabo en el Estadio de Wembley, en Londres, los días viernes 6 y sábado 7 de junio de 2008. El DVD incluye una combinación de temas de las dos noches, incluyendo las colaboraciones de los miembros de Led Zeppelin, John Paul Jones y Jimmy Page



Track List:

01. The Pretender
02. Times Like These
03. No Way Back
04. Cheer Up, Boys (Your Make Up Is Running)
05. Learn To Fly
06. Long Road To Ruin
07. Breakout
08. Stacked Actors
09. Skin And Bones
10. Marigold
11. My Hero
12. Cold Day In The Sun
13. Everlong
14. Monkey Wrench
15. All My Life
16. Rock And Roll
17. Ramble On
18. Best Of You




Trailer.jpg






Capturas.jpg


1.jpg


2.jpg


3.jpg


4.jpg


5.jpg


6.jpg





MediaInfo.jpg


Código:
General
Format                                   : AVI
Format/Info                              : Audio Video Interleave
Format profile                           : OpenDML
File size                                : 3.44 GiB
Duration                                 : 1h 58mn
Overall bit rate                         : 4 149 Kbps
Writing application                      : VirtualDubMod 1.5.10.2 (build 2540/release)
Writing library                          : VirtualDubMod build 2540/release

Video
ID                                       : 0
Format                                   : MPEG-4 Visual
Format profile                           : Advanced Simple@L5
Format settings, BVOP                    : 1
Format settings, QPel                    : No
Format settings, GMC                     : No warppoints
Format settings, Matrix                  : Default (H.263)
Codec ID                                 : XVID
Codec ID/Hint                            : XviD
Duration                                 : 1h 58mn
Bit rate                                 : 3 499 Kbps
Width                                    : 1 280 pixels
Height                                   : 720 pixels
Display aspect ratio                     : 16:9
Frame rate                               : 24.000 fps
Color space                              : YUV
Chroma subsampling                       : 4:2:0
Bit depth                                : 8 bits
Scan type                                : Progressive
Compression mode                         : Lossy
Bits/(Pixel*Frame)                       : 0.158
Stream size                              : 2.90 GiB (84%)
Writing library                          : XviD 1.2.0.dev47 (UTC 2006-11-01)

Audio
ID                                       : 1
Format                                   : AC-3
Format/Info                              : Audio Coding 3
Mode extension                           : CM (complete main)
Format settings, Endianness              : Big
Codec ID                                 : 2000
Duration                                 : 1h 58mn
Bit rate mode                            : Constant
Bit rate                                 : 640 Kbps
Channel(s)                               : 6 channels
Channel positions                        : Front: L C R, Side: L R, LFE
Sampling rate                            : 48.0 KHz
Bit depth                                : 16 bits
Compression mode                         : Lossy
Stream size                              : 544 MiB (15%)
Alignment                                : Split accross interleaves
Interleave, duration                     : 42 ms (1.00 video frame)
Interleave, preload duration             : 500 ms




Descarga.jpg



MEGA.jpg

Tenemos TODO el material de Club-HD disponible por Mega, enlaces 100% activos y online hasta la fecha

Llévate tus cuentas Mega PRO III gratis con tu membresía VIP!
Todos los posts vivos con links de Mega.
Todo el material de Club-HD desbloqueado y sin publicidad.

Obtén más información sobre nuestras Membresías VIP



UPLOADED_BANNER.png

Para ver este contenido oculto, debes dar click en el botón"Like", o cualquiera de las otras reacciones:

Me Gusta Me Gusta, Me Encanta Me Encanta, Jaja Jaja, Wow Wow, Triste Triste, Molesto Molesto

 
Última edición:
Genial buen concierto, sin duda un buen regreso... aunque fue un par de días se extraña su buenos aportes Amigos de Club HD ,muchas gracias sigan siendo los mejores!! :aplausos: :LXR:
 
Gracias muy buena banda a subirle todo el volumen B4ND4B4T3R143vil_4dr00l2
 
WUuuuuuuuuuu !!!!!! excelente R21 muchísimas gracias :DDD empesando la semana con este conciertoo
 
Muchas gracias Revolver!!! :dplgar: De lujo el concierto :aplausos: Descargando para la colección ;) Saludos bye
 
Volver