• Este aviso va dirigido a todos los nuevos miembros recien llegados a Club-HD. Les recordamos que la direccion URL de este sitio web es , asi que deben acceder únicamente por esta URL. Sean todos bienvenidos al Club!

For The Love Of Jessee (2020) 1080p WEB-DL Dual Latino-Inglés [Sub.lat] (Drama)

Tk

K.D.S 😳
Diseñador
Uploader
Miembro VIP
Registrado
1 May 2017
Mensajes
388
Puntos de reacción
5,015
Puntos
93
Sitio web
www.flickr.com






El mundo del doctor Luke Matthew se derrumba cuando pierde el amor de su vida y se convierte en padre en la misma noche. Cuando él contrata a Sage como la nueva niñera, ambos comienzan a darse cuenta de que la mejor forma de medicina es dejarlo ir.















Código:
Unique ID                                : 324619783169062444975025885493824841552 (0xF4377F000DE818BB08979ACAB99FE750)
Complete name                            : For The Love Of Jessee [2020) 1080p WEB-DL Dual Latino-Inglés [Sub.lat].mkv
Format                                   : Matroska
Format version                           : Version 4
File size                                : 3.60 GiB
Duration                                 : 1 h 34 min
Overall bit rate                         : 5 462 kb/s
Movie name                               : For The Love Of Jessee [2020) 1080p WEB-DL Dual Latino-Inglés [www.club-hd.com]
Encoded date                             : UTC 2020-07-03 02:27:55
Writing application                      : mkvmerge v46.0.0 ('No Deeper Escape') 64-bit
Writing library                          : libebml v1.3.10 + libmatroska v1.5.2

Video
ID                                       : 1
Format                                   : AVC
Format/Info                              : Advanced Video Codec
Format profile                           : High@L4
Format settings                          : CABAC / 4 Ref Frames
Format settings, CABAC                   : Yes
Format settings, Reference frames        : 4 frames
Codec ID                                 : V_MPEG4/ISO/AVC
Duration                                 : 1 h 34 min
Bit rate                                 : 5 012 kb/s
Width                                    : 1 908 pixels
Height                                   : 1 004 pixels
Display aspect ratio                     : 1.900
Frame rate mode                          : Constant
Frame rate                               : 23.976 FPS
Color space                              : YUV
Chroma subsampling                       : 4:2:0
Bit depth                                : 8 bits
Scan type                                : Progressive
Bits/(Pixel*Frame)                       : 0.109
Stream size                              : 3.30 GiB (92%)
Title                                    : For The Love Of Jessee [2020) 1080p WEB-DL Dual Latino-Inglés [Sub.lat]
Language                                 : English
Default                                  : Yes
Forced                                   : No
Color range                              : Limited
Color primaries                          : BT.709
Transfer characteristics                 : BT.709
Matrix coefficients                      : BT.709

Audio #1
ID                                       : 4
Format                                   : AC-3
Format/Info                              : Audio Coding 3
Commercial name                          : Dolby Digital
Codec ID                                 : A_AC3
Duration                                 : 1 h 34 min
Bit rate mode                            : Constant
Bit rate                                 : 256 kb/s
Channel(s)                               : 2 channels
Channel layout                           : L R
Sampling rate                            : 48.0 kHz
Frame rate                               : 31.250 FPS (1536 SPF)
Compression mode                         : Lossy
Stream size                              : 173 MiB (5%)
Title                                    : Latino 2.0 [iTunes]
Language                                 : Spanish
Service kind                             : Complete Main
Default                                  : Yes
Forced                                   : No

Audio #2
ID                                       : 5
Format                                   : AC-3
Format/Info                              : Audio Coding 3
Commercial name                          : Dolby Digital
Codec ID                                 : A_AC3
Duration                                 : 1 h 34 min
Bit rate mode                            : Constant
Bit rate                                 : 192 kb/s
Channel(s)                               : 2 channels
Channel layout                           : L R
Sampling rate                            : 48.0 kHz
Frame rate                               : 31.250 FPS (1536 SPF)
Compression mode                         : Lossy
Stream size                              : 130 MiB (4%)
Title                                    : Inglés 2.0
Language                                 : English
Service kind                             : Complete Main
Default                                  : No
Forced                                   : No

Text #1
ID                                       : 2
Format                                   : UTF-8
Codec ID                                 : S_TEXT/UTF8
Codec ID/Info                            : UTF-8 Plain Text
Duration                                 : 1 h 28 min
Bit rate                                 : 63 b/s
Count of elements                        : 1232
Stream size                              : 41.2 KiB (0%)
Title                                    : Completos [SRT]
Language                                 : Spanish
Default                                  : No
Forced                                   : No

Text #2
ID                                       : 3
Format                                   : UTF-8
Codec ID                                 : S_TEXT/UTF8
Codec ID/Info                            : UTF-8 Plain Text
Duration                                 : 1 h 6 min
Bit rate                                 : 0 b/s
Count of elements                        : 9
Stream size                              : 229 Bytes (0%)
Title                                    : Forzados [SRT]
Language                                 : Spanish
Default                                  : No
Forced                                   : Yes

Menu
00:00:00.000                             : en:1
00:01:15.000                             : en:2
00:09:58.000                             : en:3
00:18:56.000                             : en:4
00:29:50.000                             : en:5
00:37:22.000                             : en:6
00:45:31.000                             : en:7
00:54:41.000                             : en:8
01:05:17.000                             : en:9
01:15:14.000                             : en:10
01:30:37.000                             : en:11

www.club-hd.com





Enlaces de Mega y Google Drive solo disponibles para Miembros VIP

Compra tu Membresía VIP y apoya a Club-HD!

ATENCIÓN! Tenemos TODO el material de Club-HD disponible por Mega y Google Drive, enlaces 100% activos y online hasta la fecha

Llévate tus cuentas Mega PRO II gratis con tu membresía VIP!
Todos los posts vivos con links de Mega y Google Drive.
Todo el material de Club-HD desbloqueado y sin publicidad.

Click Aquí para más información.

Para ver este contenido oculto, debes dar click en una de las siguientes reacciones: Like Like, Love Love, Haha Haha, Wow Wow, Sad Sad, Angry Angry

Para ver este contenido oculto, debes dar click en una de las siguientes reacciones: Like Like, Love Love, Haha Haha, Wow Wow, Sad Sad, Angry Angry

Para ver este contenido oculto, debes dar click en una de las siguientes reacciones: Like Like, Love Love, Haha Haha, Wow Wow, Sad Sad, Angry Angry


Para ver este contenido oculto, debes dar click en una de las siguientes reacciones: Like Like, Love Love, Haha Haha, Wow Wow, Sad Sad, Angry Angry
 

El14mago

Well-known member
Miembro VIP
Registrado
10 Sep 2014
Mensajes
1,028
Puntos de reacción
51
Puntos
48
Edad
51
Gracias por el aporte.-
 

cripp

Well-known member
Registrado
27 Ago 2012
Mensajes
8,125
Puntos de reacción
481
Puntos
113
Gracias por compartir
 

Usuarios Que Están Viendo Este Tema (Total: 1, Miembros: 0, Invitados: 1)

Arriba