Four Christmases (2008) m-720p Dual Latino-Inglés [Subt. Esp-Ing] (Comedia. Romance)

Maestro Revolver

Administrador
Registro
9 Ago 2012
Mensajes
3.157
Reacciones (ptje)
54.885


Four-Christmases.jpg




FICHA_TECNICA.png


TÍTULO ORIGINAL: Four Christmases
AÑO: 2008
DURACIÓN: 88 min.
PAÍS: USA
DIRECTOR: Seth Gordon
GUIÓN: Matt Allen, Caleb Wilson
REPARTO: Reese Witherspoon, Vince Vaughn, Robert Duvall, Mary Steenburgen, Jon Favreau, Jon Voight, Dwight Yoakam, Sissy Spacek, Carol Kane, Brian Baumgartner, Kristin Chenoweth, Katy Mixon, Colleen Camp, Collette Wolfe
PRODUCTORA: New Line Cinema
GÉNERO: Comedia. Drama. Romance | Navidad
imdb-logo.png
: http://www.imdb.com/title/tt0369436/




SINOPSIS.png


Brad y Kate, una pareja de San Francisco, que había pensado pasar las Navidades en un lugar exótico, lejos de su familia, se ve obligada a cancelar sus planes y a asistir a cuatro celebraciones familiares en el mismo día. Pero estas reuniones, en las que afloran los miedos de la infancia y las heridas de la adolescencia, pondrán en peligro su relación. Mientras Brad no ve la hora de liberarse de esos compromisos, Kate empieza a cuestionarse su modo de vida y a mirar con otros ojos el de su familia.




TRAILER.png






CAPTURAS.png


Four_Christmases_CAPTURA-1.jpg


Four_Christmases_CAPTURA-2.jpg


Four_Christmases_CAPTURA-3.jpg


Four_Christmases_CAPTURA-4.jpg


La pelicula NO tiene ninguna marca... solo colocamos el nombre de esta web en las capturas




DATOS_TECNICOS.png


Código:
General
Complete name                            : Four Christmases (2008) 720p BDRip Dual Latino-Inglés [Subt. Esp].mkv
Format                                   : Matroska
Format version                           : Version 4 / Version 2
File size                                : 4.52 GiB
Duration                                 : 1h 28mn
Overall bit rate                         : 7 310 Kbps
Movie name                               : www.club-hd.com --> Four Christmases (2008) 720p BDRip Dual Latino-Inglés [Subt. Esp]
Encoded date                             : UTC 2014-12-23 19:49:51
Writing application                      : mkvmerge v7.1.0 ('Good Love') 64bit built on Jul 27 2014 13:06:55
Writing library                          : libebml v1.3.0 + libmatroska v1.4.1

Video
ID                                       : 1
Format                                   : AVC
Format/Info                              : Advanced Video Codec
Format profile                           : [email protected]
Format settings, CABAC                   : Yes
Format settings, ReFrames                : 5 frames
Codec ID                                 : V_MPEG4/ISO/AVC
Duration                                 : 1h 28mn
Bit rate                                 : 6 432 Kbps
Width                                    : 1 280 pixels
Height                                   : 720 pixels
Display aspect ratio                     : 16:9
Frame rate mode                          : Constant
Frame rate                               : 23.976 fps
Color space                              : YUV
Chroma subsampling                       : 4:2:0
Bit depth                                : 8 bits
Scan type                                : Progressive
Bits/(Pixel*Frame)                       : 0.291
Stream size                              : 3.88 GiB (86%)
Title                                    : Four Christmases (2008) 720p BDRip Dual Latino-Inglés [Subt. Esp]
Writing library                          : x264 core 78 r1318 fe83a90
Language                                 : English
Default                                  : Yes
Forced                                   : No

Audio #1
ID                                       : 2
Format                                   : AC-3
Format/Info                              : Audio Coding 3
Mode extension                           : CM (complete main)
Format settings, Endianness              : Big
Codec ID                                 : A_AC3
Duration                                 : 1h 28mn
Bit rate mode                            : Constant
Bit rate                                 : 256 Kbps
Channel(s)                               : 2 channels
Channel positions                        : Front: L R
Sampling rate                            : 48.0 KHz
Bit depth                                : 16 bits
Compression mode                         : Lossy
Stream size                              : 162 MiB (4%)
Title                                    : Four Christmases (2008) - Español Latino AC3  - 256 Kbps
Language                                 : Spanish
Default                                  : Yes
Forced                                   : No

Audio #2
ID                                       : 3
Format                                   : AC-3
Format/Info                              : Audio Coding 3
Mode extension                           : CM (complete main)
Format settings, Endianness              : Big
Codec ID                                 : A_AC3
Duration                                 : 1h 28mn
Bit rate mode                            : Constant
Bit rate                                 : 640 Kbps
Channel(s)                               : 6 channels
Channel positions                        : Front: L C R, Side: L R, LFE
Sampling rate                            : 48.0 KHz
Bit depth                                : 16 bits
Compression mode                         : Lossy
Stream size                              : 405 MiB (9%)
Title                                    : Four Christmases (2008) - Inglés AC3 5.1 - 640 Kbps
Language                                 : English
Default                                  : No
Forced                                   : No

Text
ID                                       : 4
Format                                   : UTF-8
Codec ID                                 : S_TEXT/UTF8
Codec ID/Info                            : UTF-8 Plain Text
Title                                    : Four Christmases (2008) - Subtítulos Español
Language                                 : Spanish
Default                                  : No
Forced                                   : No




Contraseña

Código:
[CENTER][SIZE=5]
www.club-hd.com[/SIZE][/CENTER]




Descarga.png




google-drive-vip.png


Tenemos TODO el material de Club-HD disponible por Mega, enlaces 100% activos y online hasta la fecha

Llévate tus cuentas Mega PRO III gratis con tu membresía VIP!
Todos los posts vivos con links de Mega.
Todo el material de Club-HD desbloqueado y sin publicidad.

Obtén más información sobre nuestras Membresías VIP




MEGA.jpg

Tenemos TODO el material de Club-HD disponible por Mega, enlaces 100% activos y online hasta la fecha

Llévate tus cuentas Mega PRO III gratis con tu membresía VIP!
Todos los posts vivos con links de Mega.
Todo el material de Club-HD desbloqueado y sin publicidad.

Obtén más información sobre nuestras Membresías VIP


1FICHIER-VIP.png

Tenemos TODO el material de Club-HD disponible por Mega, enlaces 100% activos y online hasta la fecha

Llévate tus cuentas Mega PRO III gratis con tu membresía VIP!
Todos los posts vivos con links de Mega.
Todo el material de Club-HD desbloqueado y sin publicidad.

Obtén más información sobre nuestras Membresías VIP


UPLOADED.TO_BANNER.png

Para ver este contenido oculto, debes dar click en el botón"Like", o cualquiera de las otras reacciones:

Me Gusta Me Gusta, Me Encanta Me Encanta, Jaja Jaja, Wow Wow, Triste Triste, Molesto Molesto

OPENLOAD.png

Para ver este contenido oculto, debes dar click en el botón"Like", o cualquiera de las otras reacciones:

Me Gusta Me Gusta, Me Encanta Me Encanta, Jaja Jaja, Wow Wow, Triste Triste, Molesto Molesto

google-drive.png

Para ver este contenido oculto, debes dar click en el botón"Like", o cualquiera de las otras reacciones:

Me Gusta Me Gusta, Me Encanta Me Encanta, Jaja Jaja, Wow Wow, Triste Triste, Molesto Molesto
 
Última edición por un moderador:
Excelente R21 la esperaba con ansias, gracias esta peli me gusto mucho cuando la vi, a descargar
 
Gracias por esta película navideña.

GRACIAS R21!
 
otra peli estilo navideño que espíritu navideño el tuyo revolver21 si sigues con este estilo de publicaciones esta navidad sera de película ... saludos gracias por la peli
 
Volver