Frankenstein’s Army (2013) 720p BDRip Audio Inglés [Subt. Esp] (Fantástico. Acción. Terror)

Maestro Revolver

Administrador
Registro
9 Ago 2012
Mensajes
3.157
Reacciones (ptje)
55.205


Frankensteins-Army.jpg




FichaTecnica.jpg


TÍTULO ORIGINAL: Frankenstein’s Army
AÑO: 2013
DURACIÓN: 84 min.
PAÍS: Países Bajos (Holanda)
DIRECTOR: Richard Raaphorst
GUIÓN: Chris W. Mitchell, Richard Raaphorst, Miguel Tejada-Flores
REPARTO: Alexander Mercury, Mark Stevenson, Karel Roden, Joshua Sasse, Robert Gwilym, Luke Newberry, Hon Ping Tang, Andrei Zayats, Cristina Catalina, Jan de Lukowicz, Zdenek Barinka
PRODUCTORA: Dark Sky Films / Pellicola / XYZ Films
GÉNERO: Fantástico. Acción. Terror | Nazismo. II Guerra Mundial. Metraje encontrado
imdb-logo.png
: http://www.imdb.com/title/tt1925435/




Sinopsis.jpg


Frankenstein Army nos sitúa hacia el final de la Segunda Guerra Mundial, donde en un laboratorio secreto nazi se ha empezado a experimentar con el diario de un tal Dr. Victor Frankenstein. Los científicos han utilizado el trabajo de Frankenstein para reunir un ejército de supersoldados formados por partes cosidas de los camaradas caídos, en una última táctica desesperada de horror de Hitler para escapar de la derrota.




Trailer.jpg






Capturas.jpg


1.jpg


2.jpg


3.jpg


4.jpg


5.jpg


6.jpg


La pelicula NO tiene ninguna marca... solo colocamos el nombre de esta web en las capturas




MediaInfo.jpg


Código:
General
Format                                   : Matroska
Format version                           : Version 2
File size                                : 2.76 GiB
Duration                                 : 1h 24mn
Overall bit rate                         : 4 706 Kbps
Movie name                               : www.club-hd.com
Encoded date                             : UTC 2013-08-30 23:25:45
Writing application                      : mkvmerge v5.7.0 ('The Whirlwind') built on Jul  8 2012 20:08:51
Writing library                          : libebml v1.2.3 + libmatroska v1.3.0

Video
ID                                       : 1
Format                                   : AVC
Format/Info                              : Advanced Video Codec
Format profile                           : [email protected]
Format settings, CABAC                   : Yes
Format settings, ReFrames                : 5 frames
Codec ID                                 : V_MPEG4/ISO/AVC
Duration                                 : 1h 24mn
Bit rate                                 : 4 068 Kbps
Width                                    : 1 280 pixels
Height                                   : 720 pixels
Display aspect ratio                     : 16:9
Frame rate mode                          : Constant
Frame rate                               : 23.976 fps
Color space                              : YUV
Chroma subsampling                       : 4:2:0
Bit depth                                : 8 bits
Scan type                                : Progressive
Bits/(Pixel*Frame)                       : 0.184
Stream size                              : 2.33 GiB (84%)
Title                                    : www.club-hd.com
Writing library                          : x264 core 135 r2345 f0c1c53
Language                                 : English
Default                                  : Yes
Forced                                   : No

Audio
ID                                       : 2
Format                                   : AC-3
Format/Info                              : Audio Coding 3
Mode extension                           : CM (complete main)
Format settings, Endianness              : Big
Codec ID                                 : A_AC3
Duration                                 : 1h 24mn
Bit rate mode                            : Constant
Bit rate                                 : 640 Kbps
Channel(s)                               : 6 channels
Channel positions                        : Front: L C R, Side: L R, LFE
Sampling rate                            : 48.0 KHz
Bit depth                                : 16 bits
Compression mode                         : Lossy
Stream size                              : 385 MiB (14%)
Title                                    : www.club-hd.com
Language                                 : English
Default                                  : Yes
Forced                                   : No

Text
ID                                       : 3
Format                                   : UTF-8
Codec ID                                 : S_TEXT/UTF8
Codec ID/Info                            : UTF-8 Plain Text
Language                                 : Spanish
Default                                  : Yes
Forced                                   : No




Descarga.jpg



MEGA.jpg

Tenemos TODO el material de Club-HD disponible por Mega, enlaces 100% activos y online hasta la fecha

Llévate tus cuentas Mega PRO III gratis con tu membresía VIP!
Todos los posts vivos con links de Mega.
Todo el material de Club-HD desbloqueado y sin publicidad.

Obtén más información sobre nuestras Membresías VIP


UPLOADED_BANNER.png

Para ver este contenido oculto, debes dar click en el botón"Like", o cualquiera de las otras reacciones:

Me Gusta Me Gusta, Me Encanta Me Encanta, Jaja Jaja, Wow Wow, Triste Triste, Molesto Molesto



 
Última edición por un moderador:
Muchas gracias Gran Master :aplausos:, tiene unas capturas y una sinopsis interesante, aunque no sabia de ella, parece que vale la pena, asi que mientras tanto la esperaré en Latino :bsrs:
 
Vaya, veo que has estado ocupado, cuantos nuevos aportes, se agradece todo tu esfuerzo por compartir, a descargar...
 
Volver