Frankenweenie (2012) 3D H-SBS 1080p BDRip Dual Latino-Inglés [Subt. Esp-Ing] (Animation)

Maestro Revolver

Administrador
Registro
9 Ago 2012
Mensajes
3.157
Reacciones (ptje)
55.034


123.jpg




FICHA_TECNICA.png


TÍTULO ORIGINAL: Frankenweenie
AÑO: 2012
DURACIÓN: 87 min.
PAÍS: USA
DIRECTOR: Tim Burton
GUIÓN: John August (Historia: Tim Burton, Leonard Ripps)
REPARTO: Animation
PRODUCTORA: Walt Disney Pictures / Tim Burton Animation Co. / Tim Burton Productions
GÉNERO: Animación. Ciencia ficción. Comedia. Terror | Comedia de terror. Stop Motion. Perros/Lobos. Monstruos. Remake
imdb-logo.png
: http://www.imdb.com/title/tt1142977/

PREMIOS: 2012: Círculo de Críticos de Nueva York: Mejor película de animación
2012: Premios Annie: 5 nominaciones, incluyendo mejor película
2012: Globos de Oro: Nominada a Mejor película de animación
2012: Asociación de Críticos de Los Angeles: Mejor película de animación
2012: Asociación de Boston: Mejor película de animación
2012: Satellite Awards: Nominado a Mejor largometraje de animación




SINOPSIS.png


Película basada en el cortometraje homónimo que el propio Burton realizó en 1984. El experimento científico que lleva a cabo el pequeño Victor para hacer resucitar su adorado perro Sparky, lo obligará a afrontar terribles situaciones cuyas consecuencias son imprevisibles.




TRAILER.png






CAPTURAS.png


1.jpg


2.jpg


3.jpg


4.jpg


5.jpg


6.jpg


La pelicula NO tiene ninguna marca... solo colocamos el nombre de esta web en las capturas




DATOS_TECNICOS.png


Código:
General
Format                                   : Matroska
Format version                           : Version 2
File size                                : 8.79 GiB
Duration                                 : 1h 26mn
Overall bit rate                         : 14.5 Mbps
Movie name                               : www.club-hd.com
Encoded date                             : UTC 2012-12-25 17:07:43
Writing application                      : mkvmerge v5.7.0 ('The Whirlwind') built on Jul  8 2012 20:08:51
Writing library                          : libebml v1.2.3 + libmatroska v1.3.0

Video
ID                                       : 1
Format                                   : AVC
Format/Info                              : Advanced Video Codec
Format profile                           : [email protected]
Format settings, CABAC                   : Yes
Format settings, ReFrames                : 2 frames
Codec ID                                 : V_MPEG4/ISO/AVC
Duration                                 : 1h 26mn
Bit rate                                 : 11.4 Mbps
Width                                    : 1 920 pixels
Height                                   : 1 080 pixels
Display aspect ratio                     : 16:9
Frame rate mode                          : Constant
Frame rate                               : 23.976 fps
Color space                              : YUV
Chroma subsampling                       : 4:2:0
Bit depth                                : 8 bits
Scan type                                : Progressive
Bits/(Pixel*Frame)                       : 0.229
Stream size                              : 6.92 GiB (79%)
Title                                    : www.club-hd.com
Writing library                          : x264 core
Language                                 : English
Default                                  : Yes
Forced                                   : No
Color primaries                          : BT.709
Transfer characteristics                 : BT.709
Matrix coefficients                      : BT.709

Audio #1
ID                                       : 2
Format                                   : AC-3
Format/Info                              : Audio Coding 3
Mode extension                           : CM (complete main)
Format settings, Endianness              : Big
Codec ID                                 : A_AC3
Duration                                 : 1h 26mn
Bit rate mode                            : Constant
Bit rate                                 : 640 Kbps
Channel(s)                               : 6 channels
Channel positions                        : Front: L C R, Side: L R, LFE
Sampling rate                            : 48.0 KHz
Bit depth                                : 16 bits
Compression mode                         : Lossy
Stream size                              : 398 MiB (4%)
Title                                    : www.club-hd.com  >>  Latino AC3 5.1
Language                                 : Spanish
Default                                  : Yes
Forced                                   : No

Audio #2
ID                                       : 3
Format                                   : AC-3
Format/Info                              : Audio Coding 3
Mode extension                           : CM (complete main)
Format settings, Endianness              : Big
Codec ID                                 : A_AC3
Duration                                 : 1h 26mn
Bit rate mode                            : Constant
Bit rate                                 : 640 Kbps
Channel(s)                               : 6 channels
Channel positions                        : Front: L C R, Side: L R, LFE
Sampling rate                            : 48.0 KHz
Bit depth                                : 16 bits
Compression mode                         : Lossy
Stream size                              : 398 MiB (4%)
Title                                    : www.club-hd.com  >>  Inglés AC3 5.1
Language                                 : English
Default                                  : No
Forced                                   : No

Audio #3
ID                                       : 4
Format                                   : DTS
Format/Info                              : Digital Theater Systems
Mode                                     : 16
Format settings, Endianness              : Big
Codec ID                                 : A_DTS
Duration                                 : 1h 26mn
Bit rate mode                            : Constant
Bit rate                                 : 1 509 Kbps
Channel(s)                               : 6 channels
Channel positions                        : Front: L C R, Side: L R, LFE
Sampling rate                            : 48.0 KHz
Bit depth                                : 24 bits
Compression mode                         : Lossy
Stream size                              : 938 MiB (10%)
Title                                    : www.club-hd.com  >>  Inglés DTS 5.1
Language                                 : English
Default                                  : No
Forced                                   : No

Text #1
ID                                       : 5
Format                                   : UTF-8
Codec ID                                 : S_TEXT/UTF8
Codec ID/Info                            : UTF-8 Plain Text
Title                                    : Forzados
Language                                 : Spanish
Default                                  : Yes
Forced                                   : No

Text #2
ID                                       : 6
Format                                   : UTF-8
Codec ID                                 : S_TEXT/UTF8
Codec ID/Info                            : UTF-8 Plain Text
Language                                 : Spanish
Default                                  : No
Forced                                   : No

Text #3
ID                                       : 7
Format                                   : UTF-8
Codec ID                                 : S_TEXT/UTF8
Codec ID/Info                            : UTF-8 Plain Text
Language                                 : English
Default                                  : No
Forced                                   : No

Menu
00:00:00.000                             : en:00:00:00.000
00:05:25.325                             : en:00:05:25.325
00:11:17.218                             : en:00:11:17.218
00:15:32.014                             : en:00:15:32.014
00:19:28.292                             : en:00:19:28.292
00:26:09.318                             : en:00:26:09.318
00:31:59.793                             : en:00:31:59.793
00:35:52.525                             : en:00:35:52.525
00:41:12.178                             : en:00:41:12.178
00:46:44.385                             : en:00:46:44.385
00:50:13.344                             : en:00:50:13.344
00:55:24.863                             : en:00:55:24.863
01:03:47.198                             : en:01:03:47.198
01:09:25.995                             : en:01:09:25.995
01:16:44.934                             : en:01:16:44.934
01:20:08.804                             : en:01:20:08.804


Descarga.png


MEGA.jpg

Tenemos TODO el material de Club-HD disponible por Mega, enlaces 100% activos y online hasta la fecha

Llévate tus cuentas Mega PRO III gratis con tu membresía VIP!
Todos los posts vivos con links de Mega.
Todo el material de Club-HD desbloqueado y sin publicidad.

Obtén más información sobre nuestras Membresías VIP

Google Drive Vip.png

Tenemos TODO el material de Club-HD disponible por Mega, enlaces 100% activos y online hasta la fecha

Llévate tus cuentas Mega PRO III gratis con tu membresía VIP!
Todos los posts vivos con links de Mega.
Todo el material de Club-HD desbloqueado y sin publicidad.

Obtén más información sobre nuestras Membresías VIP


google-drive.png

Para ver este contenido oculto, debes dar click en el botón"Like", o cualquiera de las otras reacciones:

Me Gusta Me Gusta, Me Encanta Me Encanta, Jaja Jaja, Wow Wow, Triste Triste, Molesto Molesto

UPLOADED.TO_BANNER.png

Para ver este contenido oculto, debes dar click en el botón"Like", o cualquiera de las otras reacciones:

Me Gusta Me Gusta, Me Encanta Me Encanta, Jaja Jaja, Wow Wow, Triste Triste, Molesto Molesto
 
Última edición por un moderador:
me encantooooooo , recien termino de verla , y ahora tambien 3D , cada dia que pasa te estas haciendo mas gigante en la web , te felicito amigo Bestia !!!!:dplgar:
 
Muchas Gracias por esta película y ahora en 3D.:aplausos:

GRACIAS R21!!

PD: Ah! este Victor solo haciendo experimentos en 3D.:aplausos::D
 
Volver