Free Birds (2013) 720p BDRip Dual Latino-Inglés [Subt. Esp] (Animación)

Maestro Revolver

Administrador
Registro
9 Ago 2012
Mensajes
3.157
Reacciones (ptje)
54.925


Free-Birds.jpg





FichaTecnica.jpg


TÍTULO ORIGINAL: Free Birds (Turkeys)
AÑO: 2013
DURACIÓN: 91 min.
PAÍS: USA
DIRECTOR: Jimmy Hayward
GUIÓN: Craig Mazin, David I. Stern, John J. Strauss
REPARTO: Animation
PRODUCTORA: Reel FX Creative Studios / Relativity Media
GÉNERO: Animación. Comedia. Ciencia ficción. Infantil | Viajes en el tiempo. Pájaros. Día de Acción de Gracias. Siglo XVII. 3-D
imdb-logo.png
: http://www.imdb.com/title/tt1621039/




Sinopsis.jpg


Un par de pavos descubren una máquina del tiempo y deciden utilizarla para volver atrás en el tiempo al primer Día de Acción de Gracias para impedir convertirse en parte del menú.




Trailer.jpg






Capturas.jpg


1.jpg


2.jpg


3.jpg


4.jpg


5.jpg


6.jpg


La pelicula NO tiene ninguna marca... solo colocamos el nombre de esta web en las capturas




MediaInfo.jpg


Código:
General
Format                                   : Matroska
Format version                           : Version 2
File size                                : 2.88 GiB
Duration                                 : 1h 31mn
Overall bit rate                         : 4 536 Kbps
Movie name                               : www.club-hd.com
Encoded date                             : UTC 2014-03-21 22:22:40
Writing application                      : mkvmerge v5.7.0 ('The Whirlwind') built on Jul  8 2012 20:08:51
Writing library                          : libebml v1.2.3 + libmatroska v1.3.0

Video
ID                                       : 1
Format                                   : AVC
Format/Info                              : Advanced Video Codec
Format profile                           : [email protected]
Format settings, CABAC                   : Yes
Format settings, ReFrames                : 5 frames
Muxing mode                              : Header stripping
Codec ID                                 : V_MPEG4/ISO/AVC
Duration                                 : 1h 31mn
Bit rate                                 : 3 641 Kbps
Width                                    : 1 280 pixels
Height                                   : 696 pixels
Display aspect ratio                     : 1.85:1
Frame rate mode                          : Constant
Frame rate                               : 23.976 fps
Color space                              : YUV
Chroma subsampling                       : 4:2:0
Bit depth                                : 8 bits
Scan type                                : Progressive
Bits/(Pixel*Frame)                       : 0.170
Stream size                              : 2.26 GiB (78%)
Title                                    : www.club-hd.com
Writing library                          : x264 core 140 r2377 1ca7bb9
Language                                 : English
Default                                  : Yes
Forced                                   : No

Audio #1
ID                                       : 2
Format                                   : AC-3
Format/Info                              : Audio Coding 3
Mode extension                           : CM (complete main)
Format settings, Endianness              : Big
Muxing mode                              : Header stripping
Codec ID                                 : A_AC3
Duration                                 : 1h 31mn
Bit rate mode                            : Constant
Bit rate                                 : 448 Kbps
Channel(s)                               : 6 channels
Channel positions                        : Front: L C R, Side: L R, LFE
Sampling rate                            : 48.0 KHz
Bit depth                                : 16 bits
Compression mode                         : Lossy
Stream size                              : 292 MiB (10%)
Title                                    : www.club-hd.com  >>  Latino
Language                                 : Spanish
Default                                  : Yes
Forced                                   : No

Audio #2
ID                                       : 3
Format                                   : AC-3
Format/Info                              : Audio Coding 3
Mode extension                           : CM (complete main)
Format settings, Endianness              : Big
Muxing mode                              : Header stripping
Codec ID                                 : A_AC3
Duration                                 : 1h 31mn
Bit rate mode                            : Constant
Bit rate                                 : 448 Kbps
Channel(s)                               : 6 channels
Channel positions                        : Front: L C R, Side: L R, LFE
Sampling rate                            : 48.0 KHz
Bit depth                                : 16 bits
Compression mode                         : Lossy
Stream size                              : 292 MiB (10%)
Title                                    : www.club-hd.com  >>  Inglés
Language                                 : English
Default                                  : No
Forced                                   : No

Text
ID                                       : 4
Format                                   : UTF-8
Codec ID                                 : S_TEXT/UTF8
Codec ID/Info                            : UTF-8 Plain Text
Language                                 : Spanish
Default                                  : No
Forced                                   : No

Menu
00:00:00.000                             : en:00:00:00.000
00:03:48.186                             : en:00:03:48.186
00:09:36.451                             : en:00:09:36.451
00:13:31.811                             : en:00:13:31.811
00:17:51.487                             : en:00:17:51.487
00:22:35.104                             : en:00:22:35.104
00:26:29.505                             : en:00:26:29.505
00:30:57.022                             : en:00:30:57.022
00:33:04.900                             : en:00:33:04.900
00:36:19.260                             : en:00:36:19.260
00:39:26.447                             : en:00:39:26.447
00:40:29.469                             : en:00:40:29.469
00:43:32.860                             : en:00:43:32.860
00:46:35.292                             : en:00:46:35.292
00:49:44.523                             : en:00:49:44.523
00:54:15.419                             : en:00:54:15.419
01:00:08.730                             : en:01:00:08.730
01:02:53.061                             : en:01:02:53.061
01:07:34.968                             : en:01:07:34.968
01:10:32.812                             : en:01:10:32.812
01:14:21.332                             : en:01:14:21.332
01:16:43.224                             : en:01:16:43.224
01:19:38.941                             : en:01:19:38.941
01:23:57.741                             : en:01:23:57.741




Descarga.jpg



MEGA.jpg

Tenemos TODO el material de Club-HD disponible por Mega, enlaces 100% activos y online hasta la fecha

Llévate tus cuentas Mega PRO III gratis con tu membresía VIP!
Todos los posts vivos con links de Mega.
Todo el material de Club-HD desbloqueado y sin publicidad.

Obtén más información sobre nuestras Membresías VIP



UPLOADED_BANNER.png

Para ver este contenido oculto, debes dar click en el botón"Like", o cualquiera de las otras reacciones:

Me Gusta Me Gusta, Me Encanta Me Encanta, Jaja Jaja, Wow Wow, Triste Triste, Molesto Molesto
 
Última edición por un moderador:
Volver