Fright Night 2: New Blood (2013) 720p BDRip Dual Latino-Inglés [Subt. Esp] (Terror)

Maestro Revolver

Administrador
Registro
9 Ago 2012
Mensajes
3.157
Reacciones (ptje)
55.062


Fright-night-2.jpg




FichaTecnica.jpg


TÍTULO ORIGINAL: Fright Night 2: New Blood
AÑO: 2013
DURACIÓN: 88 min.
PAÍS: USA
DIRECTOR: Eduardo Rodriguez
GUIÓN: Matt Venne
REPARTO: Will Payne, Jaime Murray, Sean Power, Sacha Parkinson, Chris Waller
PRODUCTORA: Gaeta / Rosenzweig Films
GÉNERO: Terror | Vampiros. Secuela
imdb-logo.png
: http://www.imdb.com/title/tt2486630/




Sinopsis.jpg


Charlie, su amigo Ed y su ex-novia Amy viajarán a Rumanía en un viaje de intercambio escolar. Allí descubrirán que su atractiva profesora Gerri es realmente una vampiro. Sin embargo, ninguno de sus amigos le creen. Gerri convertirá en vampiro a Ed, y Charlie pedirá ayuda a Peter Vincent, el famoso cazavampiros que se encuentra en Rumanía grabando un episodio especial de su show "Fright Night". Allí Peter le tendrá que ayudar antes de que Gerri convierta en una vampiro también a Amy.




Trailer.jpg






Capturas.jpg


1.jpg


2.jpg


3.jpg


4.jpg


5.jpg


6.jpg


La pelicula NO tiene ninguna marca... solo colocamos el nombre de esta web en las capturas




MediaInfo.jpg


Código:
General
Format                                   : Matroska
Format version                           : Version 2
File size                                : 3.75 GiB
Duration                                 : 1h 39mn
Overall bit rate                         : 5 383 Kbps
Movie name                               : www.club-hd.com
Encoded date                             : UTC 2013-10-04 19:41:47
Writing application                      : mkvmerge v5.7.0 ('The Whirlwind') built on Jul  8 2012 20:08:51
Writing library                          : libebml v1.2.3 + libmatroska v1.3.0

Video
ID                                       : 1
Format                                   : AVC
Format/Info                              : Advanced Video Codec
Format profile                           : [email protected]
Format settings, CABAC                   : Yes
Format settings, ReFrames                : 5 frames
Codec ID                                 : V_MPEG4/ISO/AVC
Duration                                 : 1h 39mn
Bit rate                                 : 4 763 Kbps
Width                                    : 1 280 pixels
Height                                   : 720 pixels
Display aspect ratio                     : 16:9
Frame rate mode                          : Constant
Frame rate                               : 23.976 fps
Color space                              : YUV
Chroma subsampling                       : 4:2:0
Bit depth                                : 8 bits
Scan type                                : Progressive
Bits/(Pixel*Frame)                       : 0.216
Stream size                              : 3.23 GiB (86%)
Title                                    : www.club-hd.com
Writing library                          : x264 core 135 r2345 f0c1c53
Language                                 : English
Default                                  : Yes
Forced                                   : No

Audio #1
ID                                       : 2
Format                                   : AC-3
Format/Info                              : Audio Coding 3
Mode extension                           : CM (complete main)
Format settings, Endianness              : Big
Codec ID                                 : A_AC3
Duration                                 : 1h 39mn
Bit rate mode                            : Constant
Bit rate                                 : 192 Kbps
Channel(s)                               : 2 channels
Channel positions                        : Front: L R
Sampling rate                            : 48.0 KHz
Bit depth                                : 16 bits
Compression mode                         : Lossy
Stream size                              : 137 MiB (4%)
Title                                    : www.club-hd.com  >>  Latino
Language                                 : Spanish
Default                                  : Yes
Forced                                   : No

Audio #2
ID                                       : 3
Format                                   : AC-3
Format/Info                              : Audio Coding 3
Mode extension                           : CM (complete main)
Format settings, Endianness              : Big
Codec ID                                 : A_AC3
Duration                                 : 1h 39mn
Bit rate mode                            : Constant
Bit rate                                 : 448 Kbps
Channel(s)                               : 6 channels
Channel positions                        : Front: L C R, Side: L R, LFE
Sampling rate                            : 48.0 KHz
Bit depth                                : 16 bits
Compression mode                         : Lossy
Stream size                              : 320 MiB (8%)
Title                                    : www.club-hd.com  >>  Inglés
Language                                 : English
Default                                  : No
Forced                                   : No

Text
ID                                       : 4
Format                                   : UTF-8
Codec ID                                 : S_TEXT/UTF8
Codec ID/Info                            : UTF-8 Plain Text
Language                                 : Spanish
Default                                  : No
Forced                                   : No

Menu
00:00:00.000                             : en:00:00:00.000
00:04:26.266                             : en:00:04:26.266
00:07:53.973                             : en:00:07:53.973
00:12:35.713                             : en:00:12:35.713
00:14:43.549                             : en:00:14:43.549
00:18:23.144                             : en:00:18:23.144
00:24:15.329                             : en:00:24:15.329
00:27:25.352                             : en:00:27:25.352
00:32:58.810                             : en:00:32:58.810
00:35:49.773                             : en:00:35:49.773
00:39:04.384                             : en:00:39:04.384
00:46:16.983                             : en:00:46:16.983
00:50:34.406                             : en:00:50:34.406
00:56:34.182                             : en:00:56:34.182
01:03:10.286                             : en:01:03:10.286
01:06:37.869                             : en:01:06:37.869
01:10:28.599                             : en:01:10:28.599
01:12:00.149                             : en:01:12:00.149
01:14:49.944                             : en:01:14:49.944
01:20:10.139                             : en:01:20:10.139
01:25:10.480                             : en:01:25:10.480
01:28:41.274                             : en:01:28:41.274
01:33:22.388                             : en:01:33:22.388
01:36:09.764                             : en:01:36:09.764




Descarga.jpg



MEGA.jpg

Tenemos TODO el material de Club-HD disponible por Mega, enlaces 100% activos y online hasta la fecha

Llévate tus cuentas Mega PRO III gratis con tu membresía VIP!
Todos los posts vivos con links de Mega.
Todo el material de Club-HD desbloqueado y sin publicidad.

Obtén más información sobre nuestras Membresías VIP


UPLOADED_BANNER.png

Para ver este contenido oculto, debes dar click en el botón"Like", o cualquiera de las otras reacciones:

Me Gusta Me Gusta, Me Encanta Me Encanta, Jaja Jaja, Wow Wow, Triste Triste, Molesto Molesto



 
Última edición por un moderador:
gracias master un gran fin de semana me diste
 
Volver