From Paris with Love (2010) 720p Dual Latino-Inglés [Subt. Esp-Ing] (Acción)

Maestro Revolver

Well-known member
Miembro del Staff
Administrador
Registro
9 Ago 2012
Mensajes
3.569
Reacciones
59.341
Puntos
113

Reputation:









TÍTULO ORIGINAL: From Paris with Love
AÑO: 2010
DURACIÓN: 92 min.
PAÍS: Francia
DIRECTOR: Pierre Morel
GUIÓN: Luc Besson, Adi Hasak
REPARTO: John Travolta, Jonathan Rhys Meyers, Kasia Smutniak, Amber Rose Revah, Melissa Mars, Richard Durden, Farid Elouardi, David Clark, Sami Darr, David Gasman, Safia Monney
PRODUCTORA: Europa Corp. / M6 Films / Grive Productions / Apipoulaï
GÉNERO: Acción. Thriller
http://www.imdb.com/title/tt1179034/






A Charlie Wax (John Travolta), un singular agente secreto estadounidense, le ha sido encomendada en París una misión de alto riesgo relacionada con el terrorismo y el tráfico de cocaína. El conflicto surge cuando tiene que vérselas con James Reece (Rhys Meyers), un empleado de la embajada norteamericana que se muestra contrario a los poco ortodoxos métodos de Wax.
























La pelicula NO tiene ninguna marca... solo colocamos el nombre de esta web en las capturas






Código:
General

Format                           : Matroska
Format version                   : Version 2
File size                        : 3.82 GiB
Duration                         : 1h 32mn
Overall bit rate                 : 5 909 Kbps
Movie name                       : www.club-hd.com
Encoded date                     : UTC 2012-10-28 11:17:17
Writing application              : mkvmerge v5.7.0 ('The Whirlwind') built on Jul  8 2012 20:08:51
Writing library                  : libebml v1.2.3 + libmatroska v1.3.0

Video
ID                               : 1
Format                           : AVC
Format/Info                      : Advanced Video Codec
Format profile                   : High@L3.1
Format settings, CABAC           : Yes
Format settings, ReFrames        : 5 frames
Codec ID                         : V_MPEG4/ISO/AVC
Duration                         : 1h 32mn
Bit rate                         : 5 245 Kbps
Width                            : 1 280 pixels
Height                           : 536 pixels
Display aspect ratio             : 2.40:1
Frame rate                       : 23.976 fps
Color space                      : YUV
Chroma subsampling               : 4:2:0
Bit depth                        : 8 bits
Scan type                        : Progressive
Bits/(Pixel*Frame)               : 0.319
Stream size                      : 3.31 GiB (87%)
Title                            : www.club-hd.com
Writing library                  : x264 core 96 r1602 69588a7

Language                         : English
Default                          : Yes
Forced                           : No

Audio #1
ID                               : 2
Format                           : AC-3
Format/Info                      : Audio Coding 3
Format profile                   : Dolby Digital
Mode extension                   : CM (complete main)
Codec ID                         : A_AC3
Duration                         : 1h 32mn
Bit rate mode                    : Constant
Bit rate                         : 224 Kbps
Channel(s)                       : 2 channels
Channel positions                : Front: L R
Sampling rate                    : 48.0 KHz
Bit depth                        : 16 bits
Compression mode                 : Lossy
Delay relative to video          : 200ms
Stream size                      : 148 MiB (4%)
Title                            : www.club-hd.com  >>  Latino
Language                         : Spanish
Default                          : Yes
Forced                           : No

Audio #2
ID                               : 3
Format                           : AC-3
Format/Info                      : Audio Coding 3
Mode extension                   : CM (complete main)
Codec ID                         : A_AC3
Duration                         : 1h 32mn
Bit rate mode                    : Constant
Bit rate                         : 448 Kbps
Channel(s)                       : 6 channels
Channel positions                : Front: L C R, Side: L R, LFE
Sampling rate                    : 48.0 KHz
Bit depth                        : 16 bits
Compression mode                 : Lossy
Stream size                      : 297 MiB (8%)
Title                            : www.club-hd.com  >>  Inglés
Language                         : English
Default                          : No
Forced                           : No

Text #1
ID                               : 4
Format                           : UTF-8
Codec ID                         : S_TEXT/UTF8
Codec ID/Info                    : UTF-8 Plain Text
Language                         : Spanish
Default                          : No
Forced                           : No

Text #2
ID                               : 5
Format                           : UTF-8
Codec ID                         : S_TEXT/UTF8
Codec ID/Info                    : UTF-8 Plain Text
Language                         : English
Default                          : No
Forced                           : No

Menu
00:00:00.000                     : en:00:00:00.000
00:06:41.484                     : en:00:06:41.484
00:10:17.492                     : en:00:10:17.492
00:17:21.332                     : en:00:17:21.332
00:20:18.676                     : en:00:20:18.676
00:24:47.820                     : en:00:24:47.820
00:29:43.615                     : en:00:29:43.615
00:37:39.340                     : en:00:37:39.340
00:44:23.452                     : en:00:44:23.452
00:49:37.516                     : en:00:49:37.516
00:53:12.231                     : en:00:53:12.231
00:58:11.947                     : en:00:58:11.947
01:05:33.429                     : en:01:05:33.429
01:12:38.771                     : en:01:12:38.771
01:18:35.044                     : en:01:18:35.044
01:25:38.925                     : en:01:25:38.925










Enlaces de Mega y Fireload solo disponibles para Miembros VIP

Compra tu Membresía VIP y apoya a Club-HD!

ATENCIÓN! Tenemos TODO el material de Club-HD disponible por Mega y Fireload, enlaces 100% activos y online hasta la fecha

Llévate tus cuentas Mega PRO II gratis con tu membresía VIP!
Todos los posts vivos con links de Mega y Fireload.
Todo el material de Club-HD desbloqueado y sin publicidad.

Click Aquí para más información.




Enlaces de Mega y Fireload solo disponibles para Miembros VIP

Compra tu Membresía VIP y apoya a Club-HD!

ATENCIÓN! Tenemos TODO el material de Club-HD disponible por Mega y Fireload, enlaces 100% activos y online hasta la fecha

Llévate tus cuentas Mega PRO II gratis con tu membresía VIP!
Todos los posts vivos con links de Mega y Fireload.
Todo el material de Club-HD desbloqueado y sin publicidad.

Click Aquí para más información.



Para ver este contenido oculto, debes dar click en una de las siguientes reacciones : Like Like, Love Love, Haha Haha, Wow Wow, Sad Sad, Angry Angry



Para ver este contenido oculto, debes dar click en una de las siguientes reacciones : Like Like, Love Love, Haha Haha, Wow Wow, Sad Sad, Angry Angry
 
Última edición:

Usuarios Que Están Viendo Este Tema (Total: 1, Miembros: 0, Invitados: 1)

Arriba