Frozen (2013) 3D H-SBS 1080p BDRip Dual Latino-Inglés [Subt. Esp] (Animación)

Maestro Revolver

Administrador
Registro
9 Ago 2012
Mensajes
3.157
Reacciones (ptje)
54.925


Frozen-3D.jpg





FichaTecnica.jpg


TÍTULO ORIGINAL: Frozen
AÑO: 2013
DURACIÓN: 108 min.
PAÍS: USA
DIRECTOR: Chris Buck, Jennifer Lee
GUIÓN: Jennifer Lee (Novela: Hans Christian Andersen)
REPARTO: Animation
PRODUCTORA: Walt Disney Animation Studios / Walt Disney Pictures
GÉNERO: Animación. Fantástico. Musical. Aventuras. Comedia. Infantil | Cuentos. 3-D
imdb-logo.png
: http://www.imdb.com/title/tt2294629/




Sinopsis.jpg


Cuando una profecía condena a un reino a vivir un invierno eterno, la joven Anna, el temerario montañero Kristoff y el reno Sven emprenden un viaje épico en busca de Elsa, hermana de Anna y Reina de las Nieves, para poner fin al gélido hechizo. Adaptación libre del cuento "La reina de las nieves".




Trailer.jpg






Capturas.jpg


1.jpg


2.jpg


3.jpg


4.jpg


5.jpg


6.jpg


La pelicula NO tiene ninguna marca... solo colocamos el nombre de esta web en las capturas




MediaInfo.jpg


Código:
General
Format                                   : Matroska
Format version                           : Version 3 / Version 2
File size                                : 8.98 GiB
Duration                                 : 1h 42mn
Overall bit rate                         : 12.6 Mbps
Movie name                               : www.club-hd.com
Encoded date                             : UTC 2014-03-15 23:27:54
Writing application                      : mkvmerge v5.7.0 ('The Whirlwind') built on Jul  8 2012 20:08:51
Writing library                          : libebml v1.2.3 + libmatroska v1.3.0

Video
ID                                       : 1
Format                                   : AVC
Format/Info                              : Advanced Video Codec
Format profile                           : [email protected]
MultiView_Count                          : 2
MultiView_Layout                         : Side by Side (left eye first)
Format settings, CABAC                   : Yes
Format settings, ReFrames                : 2 frames
Format settings, GOP                     : M=3, N=24
Muxing mode                              : Header stripping
Codec ID                                 : V_MPEG4/ISO/AVC
Duration                                 : 1h 42mn
Bit rate                                 : 9 532 Kbps
Width                                    : 1 920 pixels
Height                                   : 1 080 pixels
Display aspect ratio                     : 16:9
Frame rate mode                          : Constant
Frame rate                               : 23.976 fps
Color space                              : YUV
Chroma subsampling                       : 4:2:0
Bit depth                                : 8 bits
Scan type                                : Progressive
Bits/(Pixel*Frame)                       : 0.192
Stream size                              : 6.81 GiB (76%)
Title                                    : www.club-hd.com
Writing library                          : x264 core
Language                                 : English
Default                                  : Yes
Forced                                   : No
Color primaries                          : BT.709
Transfer characteristics                 : BT.709
Matrix coefficients                      : BT.709

Audio #1
ID                                       : 2
Format                                   : AC-3
Format/Info                              : Audio Coding 3
Mode extension                           : CM (complete main)
Format settings, Endianness              : Big
Muxing mode                              : Header stripping
Codec ID                                 : A_AC3
Duration                                 : 1h 42mn
Bit rate mode                            : Constant
Bit rate                                 : 640 Kbps
Channel(s)                               : 6 channels
Channel positions                        : Front: L C R, Side: L R, LFE
Sampling rate                            : 48.0 KHz
Bit depth                                : 16 bits
Compression mode                         : Lossy
Stream size                              : 468 MiB (5%)
Title                                    : Audio Español Latino AC3
Language                                 : Spanish
Default                                  : Yes
Forced                                   : No

Audio #2
ID                                       : 3
Format                                   : AC-3
Format/Info                              : Audio Coding 3
Mode extension                           : CM (complete main)
Format settings, Endianness              : Big
Muxing mode                              : Header stripping
Codec ID                                 : A_AC3
Duration                                 : 1h 42mn
Bit rate mode                            : Constant
Bit rate                                 : 640 Kbps
Channel(s)                               : 6 channels
Channel positions                        : Front: L C R, Side: L R, LFE
Sampling rate                            : 48.0 KHz
Bit depth                                : 16 bits
Compression mode                         : Lossy
Stream size                              : 468 MiB (5%)
Title                                    : Inglés AC3
Language                                 : English
Default                                  : No
Forced                                   : No

Audio #3
ID                                       : 4
Format                                   : DTS
Format/Info                              : Digital Theater Systems
Mode                                     : 16
Format settings, Endianness              : Big
Muxing mode                              : Header stripping
Codec ID                                 : A_DTS
Duration                                 : 1h 42mn
Bit rate mode                            : Constant
Bit rate                                 : 1 509 Kbps
Channel(s)                               : 6 channels
Channel positions                        : Front: L C R, Side: L R, LFE
Sampling rate                            : 48.0 KHz
Bit depth                                : 24 bits
Compression mode                         : Lossy
Stream size                              : 1.08 GiB (12%)
Title                                    : Inglés DTS
Language                                 : English
Default                                  : No
Forced                                   : No

Text
ID                                       : 5
Format                                   : VobSub
Muxing mode                              : zlib
Codec ID                                 : S_VOBSUB
Codec ID/Info                            : The same subtitle format used on DVDs
Language                                 : Spanish
Default                                  : No
Forced                                   : No

Menu
00:00:00.000                             : en:00:00:00.000
00:05:59.818                             : en:00:05:59.818
00:11:37.947                             : en:00:11:37.947
00:19:53.734                             : en:00:19:53.734
00:31:03.195                             : en:00:31:03.195
00:38:39.484                             : en:00:38:39.484
00:44:21.284                             : en:00:44:21.284
00:50:51.507                             : en:00:50:51.507
00:57:48.381                             : en:00:57:48.381
01:02:57.399                             : en:01:02:57.399
01:09:36.047                             : en:01:09:36.047
01:13:34.869                             : en:01:13:34.869
01:18:07.599                             : en:01:18:07.599
01:22:33.740                             : en:01:22:33.740
01:27:10.809                             : en:01:27:10.809
01:32:33.506                             : en:01:32:33.506




Descarga.jpg



MEGA.jpg

Tenemos TODO el material de Club-HD disponible por Mega, enlaces 100% activos y online hasta la fecha

Llévate tus cuentas Mega PRO III gratis con tu membresía VIP!
Todos los posts vivos con links de Mega.
Todo el material de Club-HD desbloqueado y sin publicidad.

Obtén más información sobre nuestras Membresías VIP



UPLOADED_BANNER.png

Para ver este contenido oculto, debes dar click en el botón"Like", o cualquiera de las otras reacciones:

Me Gusta Me Gusta, Me Encanta Me Encanta, Jaja Jaja, Wow Wow, Triste Triste, Molesto Molesto
 
Última edición por un moderador:
Esta es específicamente para mi hija que es fanática de la muñequita...
Gracias!!

Desc_g_
 
Volver