G.I. Joe: Retaliation (2013) Extended Action Cut 720p BDRip Audio Inglés [Subt. Esp] + EXTRAS (Acción. Ciencia ficción)

Maestro Revolver

Miembro del Staff
Administrador
Registro
9 Ago 2012
Mensajes
3.157








TÍTULO ORIGINAL: G.I. Joe: Retaliation (G.I. Joe 2) (GIJOE 2) (G.I.JOE 3D)
AÑO: 2013
DURACIÓN: 110 min.
PAÍS: USA
DIRECTOR: Jon Chu
GUIÓN: Rhett Reese, Paul Wernick
REPARTO: Channing Tatum, Ray Park, Lee Byung-hun, Dwayne "The Rock" Johnson, Bruce Willis, Elodie Yung, Adrianne Palicki, Joseph Mazello, D.J. Cotrona, Ray Stevenson, Arnold Vosloo, RZA, Walton Goggins, Jonathan Pryce
PRODUCTORA: Paramount Pictures / Hasbro / Silver Watch Productions / Skydance Productions
GÉNERO: Acción. Ciencia ficción | Secuela. Videojuego
: http://www.imdb.com/title/tt1583421/






Los GI Joe no sólo tendrán que vérselas con su enemigo mortal, la organización criminal Cobra, sino que además se verán obligados a lidiar con las amenazas y traiciones dentro de su propio gobierno, que ponen en peligro su existencia.
























La pelicula NO tiene ninguna marca... solo colocamos el nombre de esta web en las capturas






Código:
[SIZE=4][B][U]EXTRAS[/U][/B][/SIZE]

Runtime ............: 1:00:23
Size ...............: 2.23 GB
Video ..............: 1280x720 / 1280x534
Bitrate ............: 4881 kbps (x264 High@L4.1 CRF)
Audio 1.............: English DD2.0 Ch 224 kbps
Chapters............: Yes
Source .............: 1080p EUR Blu-ray AVC TrueHD 7.1-WiHD
Subs ...............: English, French, Spanish, German, Italian, Dutch, Swedish, Norwegian, Danish, Finnish
 
EXTRAS
 
Featurette (0:56:24) - Mission Briefing Two Ninjas Cobra Strikes Two Lone Soldiers The Monastery Fort Sumter
Deleted Scenes (0:03:59)

_____________________________________________________________

[U][B][SIZE=4]Película[/SIZE][/B][/U]

General
Format                                   : Matroska
Format version                           : Version 2
File size                                : 4.36 GiB
Duration                                 : 2h 3mn
Overall bit rate                         : 5 079 Kbps
Movie name                               : www.club-hd.com
Encoded date                             : UTC 2013-07-12 15:03:28
Writing application                      : mkvmerge v5.7.0 ('The Whirlwind') built on Jul  8 2012 20:08:51
Writing library                          : libebml v1.2.3 + libmatroska v1.3.0

Video
ID                                       : 1
Format                                   : AVC
Format/Info                              : Advanced Video Codec
Format profile                           : High@L4.1
Format settings, CABAC                   : Yes
Format settings, ReFrames                : 5 frames
Codec ID                                 : V_MPEG4/ISO/AVC
Duration                                 : 2h 3mn
Bit rate                                 : 4 440 Kbps
Width                                    : 1 280 pixels
Height                                   : 536 pixels
Display aspect ratio                     : 2.40:1
Frame rate mode                          : Constant
Frame rate                               : 23.976 fps
Color space                              : YUV
Chroma subsampling                       : 4:2:0
Bit depth                                : 8 bits
Scan type                                : Progressive
Bits/(Pixel*Frame)                       : 0.270
Stream size                              : 3.73 GiB (85%)
Title                                    : www.club-hd.com
Writing library                          : x264 core 133 r2334 a3ac64b
Language                                 : English
Default                                  : Yes
Forced                                   : No

Audio
ID                                       : 2
Format                                   : AC-3
Format/Info                              : Audio Coding 3
Mode extension                           : CM (complete main)
Format settings, Endianness              : Big
Codec ID                                 : A_AC3
Duration                                 : 2h 3mn
Bit rate mode                            : Constant
Bit rate                                 : 640 Kbps
Channel(s)                               : 6 channels
Channel positions                        : Front: L C R, Side: L R, LFE
Sampling rate                            : 48.0 KHz
Bit depth                                : 16 bits
Compression mode                         : Lossy
Stream size                              : 563 MiB (13%)
Title                                    : www.club-hd.com
Language                                 : English
Default                                  : Yes
Forced                                   : No

Text
ID                                       : 3
Format                                   : UTF-8
Codec ID                                 : S_TEXT/UTF8
Codec ID/Info                            : UTF-8 Plain Text
Title                                    : www.club-hd.com
Language                                 : Spanish
Default                                  : Yes
Forced                                   : No

Menu
00:00:00.000                             : en:00:00:00.000
00:11:31.858                             : en:00:11:31.858
00:18:28.607                             : en:00:18:28.607
00:23:49.261                             : en:00:23:49.261
00:31:58.125                             : en:00:31:58.125
00:37:16.943                             : en:00:37:16.943
00:46:13.646                             : en:00:46:13.646
00:48:16.727                             : en:00:48:16.727
00:54:59.630                             : en:00:54:59.630
01:00:31.378                             : en:01:00:31.378
01:08:14.924                             : en:01:08:14.924
01:14:38.474                             : en:01:14:38.474
01:22:21.770                             : en:01:22:21.770
01:26:19.424                             : en:01:26:19.424
01:32:55.487                             : en:01:32:55.487
01:43:06.097                             : en:01:43:06.097
01:53:55.579                             : en:01:53:55.579








Enlaces de Mega y Google Drive solo disponibles para Miembros VIP

Compra tu Membresía VIP y apoya a Club-HD!

ATENCIÓN! Tenemos TODO el material de Club-HD disponible por Mega y Google Drive, enlaces 100% activos y online hasta la fecha

Llévate tus cuentas Mega PRO III gratis con tu membresía VIP!
Todos los posts vivos con links de Mega y Google Drive.
Todo el material de Club-HD desbloqueado y sin publicidad.

Click Aquí para más información.

EXTRAS



Para ver este contenido oculto, debes dar click en una de las siguientes reacciones : Like Like, Love Love, Haha Haha, Wow Wow, Sad Sad, Angry Angry



 
Última edición por un moderador:
Registro
27 Ago 2012
Mensajes
1.386
Ubicación
Lima
M_Bu3n0 elaporte :thank-you: Gracias, que rápido en subir :dplgar: esta mejor y más completo que en el cine xD por ser la versión Extended Action Cut + los EXTRAS :dplgar:
 

HemoAr

Dohko de Libra
Administrador
Registro
9 Mar 2013
Mensajes
8.234
Ubicación
Rozan
Super Hurr4h Estamos de fiesta en Club. Por los 10mil y con este Super peliculon :aplausos: Gracias Revolver como siempre por tan buenas peliculas.
 

Usuarios Que Están Viendo Este Tema (Total: 1, Miembros: 0, Invitados: 1)

Quién Leyó Este Tema (Total Miembros: 2)

Arriba