G.I. Joe: Retaliation (2013) Theatrical Cut 1080p BDRip Dual Latino-Inglés [Subt. Esp] (Acción. Ciencia ficción)

Maestro Revolver

Well-known member
Miembro del Staff
Administrador
Registro
9 Ago 2012
Mensajes
3.567
Reputation
1








TÍTULO ORIGINAL: G.I. Joe: Retaliation (G.I. Joe 2) (GIJOE 2) (G.I.JOE 3D)
AÑO: 2013
DURACIÓN: 110 min.
PAÍS: USA
DIRECTOR: Jon Chu
GUIÓN: Rhett Reese, Paul Wernick
REPARTO: Channing Tatum, Ray Park, Lee Byung-hun, Dwayne "The Rock" Johnson, Bruce Willis, Elodie Yung, Adrianne Palicki, Joseph Mazello, D.J. Cotrona, Ray Stevenson, Arnold Vosloo, RZA, Walton Goggins, Jonathan Pryce
PRODUCTORA: Paramount Pictures / Hasbro / Silver Watch Productions / Skydance Productions
GÉNERO: Acción. Ciencia ficción | Secuela. Videojuego
: http://www.imdb.com/title/tt1583421/






Los GI Joe no sólo tendrán que vérselas con su enemigo mortal, la organización criminal Cobra, sino que además se verán obligados a lidiar con las amenazas y traiciones dentro de su propio gobierno, que ponen en peligro su existencia.




























La pelicula NO tiene ninguna marca... solo colocamos el nombre de esta web en las capturas






Código:
General
Format                                   : Matroska
Format version                           : Version 2
File size                                : 11.7 GiB
Duration                                 : 1h 50mn
Overall bit rate mode                    : Variable
Overall bit rate                         : 15.2 Mbps
Movie name                               : www.club-hd.com
Encoded date                             : UTC 2013-07-16 21:46:44
Writing application                      : mkvmerge v5.7.0 ('The Whirlwind') built on Jul  8 2012 20:08:51
Writing library                          : libebml v1.2.3 + libmatroska v1.3.0

Video
ID                                       : 1
Format                                   : AVC
Format/Info                              : Advanced Video Codec
Format profile                           : High@L4.1
Format settings, CABAC                   : Yes
Format settings, ReFrames                : 3 frames
Codec ID                                 : V_MPEG4/ISO/AVC
Duration                                 : 1h 50mn
Nominal bit rate                         : 10 000 Kbps
Width                                    : 1 920 pixels
Height                                   : 800 pixels
Display aspect ratio                     : 2.40:1
Frame rate mode                          : Constant
Frame rate                               : 23.976 fps
Color space                              : YUV
Chroma subsampling                       : 4:2:0
Bit depth                                : 8 bits
Scan type                                : Progressive
Bits/(Pixel*Frame)                       : 0.272
Title                                    : www.club-hd.com
Writing library                          : x264 core 120
Language                                 : English
Default                                  : Yes
Forced                                   : No
Color primaries                          : BT.709
Transfer characteristics                 : BT.709
Matrix coefficients                      : BT.709

Audio #1
ID                                       : 2
Format                                   : AC-3
Format/Info                              : Audio Coding 3
Mode extension                           : CM (complete main)
Format settings, Endianness              : Big
Codec ID                                 : A_AC3
Duration                                 : 1h 50mn
Bit rate mode                            : Constant
Bit rate                                 : 448 Kbps
Channel(s)                               : 6 channels
Channel positions                        : Front: L C R, Side: L R, LFE
Sampling rate                            : 48.0 KHz
Bit depth                                : 16 bits
Compression mode                         : Lossy
Stream size                              : 353 MiB (3%)
Title                                    : www.club-hd.com  >>  Latino AC3 5.1
Language                                 : Spanish
Default                                  : Yes
Forced                                   : No

Audio #2
ID                                       : 3
Format                                   : AC-3
Format/Info                              : Audio Coding 3
Mode extension                           : CM (complete main)
Format settings, Endianness              : Big
Codec ID                                 : A_AC3
Duration                                 : 1h 50mn
Bit rate mode                            : Constant
Bit rate                                 : 640 Kbps
Channel(s)                               : 6 channels
Channel positions                        : Front: L C R, Side: L R, LFE
Sampling rate                            : 48.0 KHz
Bit depth                                : 16 bits
Compression mode                         : Lossy
Stream size                              : 505 MiB (4%)
Title                                    : www.club-hd.com  >>  Inglés AC3 5.1
Language                                 : English
Default                                  : No
Forced                                   : No

Audio #3
ID                                       : 4
Format                                   : TrueHD
Codec ID                                 : A_TRUEHD
Duration                                 : 1h 50mn
Bit rate mode                            : Variable
Maximum bit rate                         : 6 204 Kbps
Channel(s)                               : 8 channels
Channel positions                        : Front: L C R, Side: L R, Back: L R, LFE
Sampling rate                            : 48.0 KHz
Compression mode                         : Lossless
Title                                    : www.club-hd.com  >>  Inglés TrueHD 7.1
Language                                 : English
Default                                  : No
Forced                                   : No

Text #1
ID                                       : 5
Format                                   : UTF-8
Codec ID                                 : S_TEXT/UTF8
Codec ID/Info                            : UTF-8 Plain Text
Title                                    : Forzados
Language                                 : Spanish
Default                                  : Yes
Forced                                   : No

Text #2
ID                                       : 6
Format                                   : UTF-8
Codec ID                                 : S_TEXT/UTF8
Codec ID/Info                            : UTF-8 Plain Text
Language                                 : Spanish
Default                                  : No
Forced                                   : No

Menu
00:00:00.000                             : en:Chapter 1
00:06:08.242                             : en:Chapter 2
00:12:52.313                             : en:Chapter 3
00:17:35.471                             : en:Chapter 4
00:25:37.369                             : en:Chapter 5
00:30:56.187                             : en:Chapter 6
00:39:00.880                             : en:Chapter 7
00:42:40.975                             : en:Chapter 8
00:48:31.241                             : en:Chapter 9
00:54:02.989                             : en:Chapter 10
01:01:46.536                             : en:Chapter 11
01:07:34.717                             : en:Chapter 12
01:13:56.807                             : en:Chapter 13
01:17:54.461                             : en:Chapter 14
01:23:45.979                             : en:Chapter 15
01:31:12.758                             : en:Chapter 16
01:41:13.358                             : en:Chapter 17








Enlaces de Mega y Google Drive solo disponibles para Miembros VIP

Compra tu Membresía VIP y apoya a Club-HD!

ATENCIÓN! Tenemos TODO el material de Club-HD disponible por Mega y Google Drive, enlaces 100% activos y online hasta la fecha

Llévate tus cuentas Mega PRO III gratis con tu membresía VIP!
Todos los posts vivos con links de Mega y Google Drive.
Todo el material de Club-HD desbloqueado y sin publicidad.

Click Aquí para más información.



Para ver este contenido oculto, debes dar click en una de las siguientes reacciones : Like Like, Love Love, Haha Haha, Wow Wow, Sad Sad, Angry Angry

 
Última edición por un moderador:

juank

New member
Registro
27 Ago 2012
Mensajes
149
Reputation
0
que genial este aporte a descargar :dplgar:
por un caso si van a publicar la version extendida
 

Usuarios Que Están Viendo Este Tema (Total: 1, Miembros: 0, Invitados: 1)

Quién Leyó Este Tema (Total Miembros: 2)

Arriba