Getaway (2013) 720p BDRip Dual Latino-Inglés [Subt. Esp] (Thriller. Acción)

Maestro Revolver

Well-known member
Miembro del Staff
Administrador
Registro
9 Ago 2012
Mensajes
3.567








TÍTULO ORIGINAL: Getaway
AÑO: 2013
DURACIÓN: 90 min.
PAÍS: USA
DIRECTOR: Courtney Solomon, Yaron Levy
GUIÓN: Gregg Maxwell Parker, Sean Finegan
REPARTO: Ethan Hawke, Selena Gomez, Jon Voight, Paul Freeman, Rebecca Budig, Bruce Payne, Velislav Pavlov, Gabe Lustman, Maria Bobeva
PRODUCTORA: Co-producción USA-Bulgaria; After Dark Films / Dark Castle Entertainment / Silver Reel / Warner Brothers / thefyzz
GÉNERO: Thriller. Acción | Coches / Automovilismo. Secuestros / Desapariciones
: http://www.imdb.com/title/tt2167202/






Brent Magna (Ethan Hawke) es un conductor de coches de carreras que se ve abocado a tomar las riendas de una misión cuando su esposa es secuestrada. A Brent solo se une una joven hacker (Selena Gomez), y su única esperanza de salvar a su esposa es seguir las órdenes de la voz misteriosa que está vigilando todos los movimientos mediante cámaras montadas en el coche que conduce Brent.























La pelicula NO tiene ninguna marca... solo colocamos el nombre de esta web en las capturas






Código:
General
Format                                   : Matroska
Format version                           : Version 2
File size                                : 4.11 GiB
Duration                                 : 1h 30mn
Overall bit rate                         : 6 525 Kbps
Movie name                               : www.club-hd.com
Encoded date                             : UTC 2013-11-16 13:06:32
Writing application                      : mkvmerge v5.7.0 ('The Whirlwind') built on Jul  8 2012 20:08:51
Writing library                          : libebml v1.2.3 + libmatroska v1.3.0

Video
ID                                       : 1
Format                                   : AVC
Format/Info                              : Advanced Video Codec
Format profile                           : High@L3.1
Format settings, CABAC                   : Yes
Format settings, ReFrames                : 5 frames
Codec ID                                 : V_MPEG4/ISO/AVC
Duration                                 : 1h 30mn
Bit rate                                 : 5 435 Kbps
Width                                    : 1 280 pixels
Height                                   : 536 pixels
Display aspect ratio                     : 2.40:1
Frame rate mode                          : Constant
Frame rate                               : 23.976 fps
Color space                              : YUV
Chroma subsampling                       : 4:2:0
Bit depth                                : 8 bits
Scan type                                : Progressive
Bits/(Pixel*Frame)                       : 0.330
Stream size                              : 3.34 GiB (81%)
Title                                    : www.club-hd.com
Writing library                          : x264 core 140 r2377 1ca7bb9
Language                                 : English
Default                                  : Yes
Forced                                   : No

Audio #1
ID                                       : 2
Format                                   : AC-3
Format/Info                              : Audio Coding 3
Mode extension                           : CM (complete main)
Format settings, Endianness              : Big
Codec ID                                 : A_AC3
Duration                                 : 1h 30mn
Bit rate mode                            : Constant
Bit rate                                 : 640 Kbps
Channel(s)                               : 6 channels
Channel positions                        : Front: L C R, Side: L R, LFE
Sampling rate                            : 48.0 KHz
Bit depth                                : 16 bits
Compression mode                         : Lossy
Stream size                              : 412 MiB (10%)
Language                                 : Spanish
Default                                  : Yes
Forced                                   : No

Audio #2
ID                                       : 3
Format                                   : AC-3
Format/Info                              : Audio Coding 3
Mode extension                           : CM (complete main)
Format settings, Endianness              : Big
Codec ID                                 : A_AC3
Duration                                 : 1h 30mn
Bit rate mode                            : Constant
Bit rate                                 : 448 Kbps
Channel(s)                               : 6 channels
Channel positions                        : Front: L C R, Side: L R, LFE
Sampling rate                            : 48.0 KHz
Bit depth                                : 16 bits
Compression mode                         : Lossy
Stream size                              : 289 MiB (7%)
Language                                 : English
Default                                  : No
Forced                                   : No

Text #1
ID                                       : 4
Format                                   : UTF-8
Codec ID                                 : S_TEXT/UTF8
Codec ID/Info                            : UTF-8 Plain Text
Title                                    : Forzados
Language                                 : Spanish
Default                                  : Yes
Forced                                   : No

Text #2
ID                                       : 5
Format                                   : UTF-8
Codec ID                                 : S_TEXT/UTF8
Codec ID/Info                            : UTF-8 Plain Text
Language                                 : Spanish
Default                                  : No
Forced                                   : No

Menu
00:00:00.000                             : en:00:00:00.000
00:09:36.701                             : en:00:09:36.701
00:20:01.200                             : en:00:20:01.200
00:30:40.589                             : en:00:30:40.589
00:41:12.762                             : en:00:41:12.762
00:50:33.739                             : en:00:50:33.739
01:00:03.475                             : en:01:00:03.475
01:10:07.578                             : en:01:10:07.578
01:18:37.713                             : en:01:18:37.713
01:22:02.209                             : en:01:22:02.209








Enlaces de Mega y Google Drive solo disponibles para Miembros VIP

Compra tu Membresía VIP y apoya a Club-HD!

ATENCIÓN! Tenemos TODO el material de Club-HD disponible por Mega y Google Drive, enlaces 100% activos y online hasta la fecha

Llévate tus cuentas Mega PRO III gratis con tu membresía VIP!
Todos los posts vivos con links de Mega y Google Drive.
Todo el material de Club-HD desbloqueado y sin publicidad.

Click Aquí para más información.



Para ver este contenido oculto, debes dar click en una de las siguientes reacciones : Like Like, Love Love, Haha Haha, Wow Wow, Sad Sad, Angry Angry

 
Última edición por un moderador:

Usuarios Que Están Viendo Este Tema (Total: 1, Miembros: 0, Invitados: 1)

Quién Leyó Este Tema (Total Miembros: 4)

Arriba