Girl Most Likely (2012) 720p BDRip Dual Latino-Inglés [Subt. Esp] (Comedia. Drama)

Maestro Revolver

Well-known member
Miembro del Staff
Administrador
Registro
9 Ago 2012
Mensajes
3.567








TÍTULO ORIGINAL: Girl Most Likely (AKA Imogene)
AÑO: 2012
DURACIÓN: 103 min.
PAÍS: USA
DIRECTOR: Robert Pulcini, Shari Springer Berman
GUIÓN: Michelle Morgan
REPARTO: Kristen Wiig, Annette Bening, Matt Dillon, Darren Criss, Natasha Lyonne, June Diane Raphael, Michelle Hurd, Nathan Corddry, Mickey Sumner, Christopher Fitzgerald, Nicole Patrick, Brian Petsos, Reed Birney, Ronald Guttman, Jimmy Palumbo, Michelle Morgan
PRODUCTORA: Maven Pictures / Anonymous Content / Ambush Entertainment / Foggy Bottom Pictures / 10th Hole Productions
GÉNERO: Comedia. Drama | Familia. Cine independiente USA
: http://www.imdb.com/title/tt1698648/






Imogene (Kristen Wiig) es una exitosa dramaturga de Nueva York que finge su suicidio como estratagema para intentar recuperar a su ex novio... y lo único que consigue es quedarse bajo la custodia de su madre, Zelda (Annette Bening), una adicta al juego.
























La pelicula NO tiene ninguna marca... solo colocamos el nombre de esta web en las capturas






Código:
General
Format                                   : Matroska
Format version                           : Version 2
File size                                : 4.06 GiB
Duration                                 : 1h 43mn
Overall bit rate                         : 5 636 Kbps
Movie name                               : www.club-hd.com
Encoded date                             : UTC 2013-10-26 03:14:29
Writing application                      : mkvmerge v5.7.0 ('The Whirlwind') built on Jul  8 2012 20:08:51
Writing library                          : libebml v1.2.3 + libmatroska v1.3.0

Video
ID                                       : 1
Format                                   : AVC
Format/Info                              : Advanced Video Codec
Format profile                           : High@L4.1
Format settings, CABAC                   : Yes
Format settings, ReFrames                : 5 frames
Codec ID                                 : V_MPEG4/ISO/AVC
Duration                                 : 1h 43mn
Bit rate                                 : 4 548 Kbps
Width                                    : 1 280 pixels
Height                                   : 720 pixels
Display aspect ratio                     : 16:9
Frame rate mode                          : Constant
Frame rate                               : 23.976 fps
Color space                              : YUV
Chroma subsampling                       : 4:2:0
Bit depth                                : 8 bits
Scan type                                : Progressive
Bits/(Pixel*Frame)                       : 0.206
Stream size                              : 3.20 GiB (79%)
Title                                    : www.club-hd.com
Writing library                          : x264 core 138 r2358 9e941d1
Language                                 : English
Default                                  : Yes
Forced                                   : No

Audio #1
ID                                       : 2
Format                                   : AC-3
Format/Info                              : Audio Coding 3
Mode extension                           : CM (complete main)
Format settings, Endianness              : Big
Codec ID                                 : A_AC3
Duration                                 : 1h 43mn
Bit rate mode                            : Constant
Bit rate                                 : 448 Kbps
Channel(s)                               : 6 channels
Channel positions                        : Front: L C R, Side: L R, LFE
Sampling rate                            : 48.0 KHz
Bit depth                                : 16 bits
Compression mode                         : Lossy
Stream size                              : 331 MiB (8%)
Title                                    : www.club-hd.com  >>  Latino
Language                                 : Spanish
Default                                  : Yes
Forced                                   : No

Audio #2
ID                                       : 3
Format                                   : AC-3
Format/Info                              : Audio Coding 3
Mode extension                           : CM (complete main)
Format settings, Endianness              : Big
Codec ID                                 : A_AC3
Duration                                 : 1h 43mn
Bit rate mode                            : Constant
Bit rate                                 : 640 Kbps
Channel(s)                               : 6 channels
Channel positions                        : Front: L C R, Side: L R, LFE
Sampling rate                            : 48.0 KHz
Bit depth                                : 16 bits
Compression mode                         : Lossy
Stream size                              : 472 MiB (11%)
Title                                    : www.club-hd.com  >>  Inglés
Language                                 : English
Default                                  : No
Forced                                   : No

Text
ID                                       : 4
Format                                   : UTF-8
Codec ID                                 : S_TEXT/UTF8
Codec ID/Info                            : UTF-8 Plain Text
Language                                 : Spanish
Default                                  : No
Forced                                   : No

Menu
00:00:00.000                             : en:00:00:00.000
00:07:13.808                             : en:00:07:13.808
00:17:45.106                             : en:00:17:45.106
00:26:20.704                             : en:00:26:20.704
00:31:55.122                             : en:00:31:55.122
00:39:43.631                             : en:00:39:43.631
00:48:09.512                             : en:00:48:09.512
00:58:37.931                             : en:00:58:37.931
01:08:56.299                             : en:01:08:56.299
01:17:51.917                             : en:01:17:51.917
01:29:10.428                             : en:01:29:10.428
01:35:09.037                             : en:01:35:09.037








Enlaces de Mega y Google Drive solo disponibles para Miembros VIP

Compra tu Membresía VIP y apoya a Club-HD!

ATENCIÓN! Tenemos TODO el material de Club-HD disponible por Mega y Google Drive, enlaces 100% activos y online hasta la fecha

Llévate tus cuentas Mega PRO III gratis con tu membresía VIP!
Todos los posts vivos con links de Mega y Google Drive.
Todo el material de Club-HD desbloqueado y sin publicidad.

Click Aquí para más información.



Para ver este contenido oculto, debes dar click en una de las siguientes reacciones : Like Like, Love Love, Haha Haha, Wow Wow, Sad Sad, Angry Angry

 
Última edición por un moderador:

Usuarios Que Están Viendo Este Tema (Total: 1, Miembros: 0, Invitados: 1)

Quién Leyó Este Tema (Total Miembros: 2)

Arriba