Girls' Generation - Japan 1st Tour (2011) 720p BDRip [AC3 5.1] (Concierto)

Maestro Revolver

Administrador
Registro
9 Ago 2012
Mensajes
3.157
Reacciones (ptje)
54.885

Girls-Generation-First-Japan.jpg





Sinopsis.jpg


La Casa de la temporada está a la vuelta de la esquina, pero parece que SM Entertainment no tiene un plan en dar a nuestros bolsillos algunas vacaciones. Después de su anuncio de que Girls 'Generation lanzará su primer photobook japonés titulado 'Holiday' en el 30 de noviembre , también se anunció que lanzará un Blu-Ray/DVD para la Primera japonesa gira de conciertos en el 14 de diciembre. [Google Traductor]



Track List:

01. ~OPENING~
02. GENIE
03. you
04. MR.TAXI
05. I'm In Love With The HERO
06. ~Movie~
07. Let It Rain
08. ~MC~
09. Snowy Wish
10. ETUDE
11. Kissing you
12. Oh!
13. ~Movie~
14. THE GREAT ESCAPE
15. ~Movie~
16. BAD GIRL
17. ~Movie~
18. Run Devil Run intro
19. Run Devil Run
20. Beautiful Stranger
21. HOOT
22. Complete
23. My Child
24. ~Movie~
25. Ice Boy
26. HaHaHaSong
27. Gee
28. ~MC~
29. BORN TO BE A LADY
30. Into the new world
31. Way to go
32. ~MC~
33. It's Fantastic




Trailer.jpg






Capturas.jpg


1.jpg


2.jpg


3.jpg


4.jpg


6.jpg





MediaInfo.jpg


Código:
General
Format                                   : Matroska
Format version                           : Version 2
File size                                : 7.93 GiB
Duration                                 : 2h 0mn
Overall bit rate                         : 9 397 Kbps
Movie name                               : www.club-hd.com
Encoded date                             : UTC 2013-10-20 21:01:51
Writing application                      : mkvmerge v5.7.0 ('The Whirlwind') built on Jul  8 2012 20:08:51
Writing library                          : libebml v1.2.3 + libmatroska v1.3.0

Video
ID                                       : 1
Format                                   : AVC
Format/Info                              : Advanced Video Codec
Format profile                           : [email protected]
Format settings, CABAC                   : Yes
Format settings, ReFrames                : 9 frames
Codec ID                                 : V_MPEG4/ISO/AVC
Duration                                 : 2h 0mn
Bit rate                                 : 8 756 Kbps
Width                                    : 1 280 pixels
Height                                   : 720 pixels
Display aspect ratio                     : 16:9
Frame rate mode                          : Constant
Frame rate                               : 23.976 fps
Color space                              : YUV
Chroma subsampling                       : 4:2:0
Bit depth                                : 8 bits
Scan type                                : Progressive
Bits/(Pixel*Frame)                       : 0.396
Stream size                              : 7.23 GiB (91%)
Title                                    : www.club-hd.com
Writing library                          : x264 core 120 r2120 0c7dab9
Language                                 : Japanese
Default                                  : Yes
Forced                                   : No

Audio
ID                                       : 2
Format                                   : AC-3
Format/Info                              : Audio Coding 3
Mode extension                           : CM (complete main)
Format settings, Endianness              : Big
Codec ID                                 : A_AC3
Duration                                 : 2h 0mn
Bit rate mode                            : Constant
Bit rate                                 : 640 Kbps
Channel(s)                               : 6 channels
Channel positions                        : Front: L C R, Side: L R, LFE
Sampling rate                            : 48.0 KHz
Bit depth                                : 16 bits
Compression mode                         : Lossy
Stream size                              : 553 MiB (7%)
Title                                    : www.club-hd.com
Language                                 : Japanese
Default                                  : Yes
Forced                                   : No




Descarga.jpg



MEGA.jpg

Tenemos TODO el material de Club-HD disponible por Mega, enlaces 100% activos y online hasta la fecha

Llévate tus cuentas Mega PRO III gratis con tu membresía VIP!
Todos los posts vivos con links de Mega.
Todo el material de Club-HD desbloqueado y sin publicidad.

Obtén más información sobre nuestras Membresías VIP



UPLOADED_BANNER.png

Para ver este contenido oculto, debes dar click en el botón"Like", o cualquiera de las otras reacciones:

Me Gusta Me Gusta, Me Encanta Me Encanta, Jaja Jaja, Wow Wow, Triste Triste, Molesto Molesto

 
Última edición por un moderador:
Desc_g_

A ver que tal estan estas asiáticas, digo, a ver que tal cantan Mlevol0

Ok no S_T1... Me la llevo, a mi amigo le encanta este grupo, le van a encantar estos conciertos

Y vamos por el otro Mlevol0

Gracias!!!

Saludos :D
 
:dplgar:dance3Hurr4hHurr4hFinalizando recorrido asiatico jajaj, gracias mil gracias Boss!!!! no sabes que Dificil cuesta hallar este tipo de conciertos y encima bien subidos y en esta calidad!!!!!!!!!!

Aunque para vos no existen Imposibles :DPl4yb0y
 
Volver