Godzilla x Kong: The New Empire (2024) 1080p AMZN-WEB-DL HEVC Latino-Inglés (Acción. Ciencia ficción)

LuchoO

責任者

Moderador
Uploader
Registro
15 Ago 2015
Mensajes
1.872
Reacciones (ptje)
28.075

cover.png



FICHA.TECNICA.png

Captura.JPG



SINOPSIS.PNG



Una aventura cinematográfica completamente nueva, que enfrentará al todopoderoso Kong y al temible Godzilla contra una colosal amenaza desconocida escondida dentro de nuestro mundo. La nueva y épica película profundizará en las historias de estos titanes, sus orígenes y los misterios de Isla Calavera y más allá, mientras descubre la batalla mítica que ayudó a forjar a estos seres extraordinarios y los unió a la humanidad para siempre.

6.5



TRAILER.PNG



CAPTURAS.PNG


gxk.0001.jpeg


gxk.0002.jpeg


gxk.0003.jpeg


gxk.0004.jpeg


gxk.0005.jpeg


MEDIAINFO.PNG

General
Complete name : Godzilla x Kong The New Empire 2024 AMZN WEB-DL 1080p HEVC Dual.mkv
Format : Matroska
Format version : Version 4
File size : 6.11 GiB
Duration : 1 h 55 min
Overall bit rate : 7 571 kb/s
Frame rate : 23.976 FPS
Encoded date : 2024-05-13 22:13:41 UTC
Writing application : mkvmerge v77.0 ('Elemental') 64-bit
Writing library : libebml v1.4.4 + libmatroska v1.7.1

Video
ID : 1
Format : HEVC
Format/Info : High Efficiency Video Coding
Format profile : Main@L4@Main
Codec ID : V_MPEGH/ISO/HEVC
Duration : 1 h 54 min
Bit rate : 6 337 kb/s
Width : 1 920 pixels
Height : 800 pixels
Display aspect ratio : 2.40:1
Frame rate mode : Constant
Frame rate : 23.976 (24000/1001) FPS
Standard : NTSC
Color space : YUV
Chroma subsampling : 4:2:0
Bit depth : 8 bits
Bits/(Pixel*Frame) : 0.172
Stream size : 5.07 GiB (83%)
Default : Yes
Forced : No
Color range : Limited
Color primaries : BT.709
Transfer characteristics : BT.709
Matrix coefficients : BT.709

Audio #1
ID : 2
Format : E-AC-3
Format/Info : Enhanced AC-3
Commercial name : Dolby Digital Plus
Codec ID : A_EAC3
Duration : 1 h 55 min
Bit rate mode : Constant
Bit rate : 640 kb/s
Channel(s) : 6 channels
Channel layout : L R C LFE Ls Rs
Sampling rate : 48.0 kHz
Frame rate : 31.250 FPS (1536 SPF)
Compression mode : Lossy
Stream size : 529 MiB (8%)
Language : Spanish (Latin America)
Service kind : Complete Main
Default : Yes
Forced : No

Audio #2
ID : 3
Format : E-AC-3
Format/Info : Enhanced AC-3
Commercial name : Dolby Digital Plus
Codec ID : A_EAC3
Duration : 1 h 55 min
Bit rate mode : Constant
Bit rate : 640 kb/s
Channel(s) : 6 channels
Channel layout : L R C LFE Ls Rs
Sampling rate : 48.0 kHz
Frame rate : 31.250 FPS (1536 SPF)
Compression mode : Lossy
Stream size : 529 MiB (8%)
Language : English
Service kind : Complete Main
Default : No
Forced : No

Text #1
ID : 4
Format : UTF-8
Codec ID : S_TEXT/UTF8
Codec ID/Info : UTF-8 Plain Text
Duration : 1 h 43 min
Bit rate : 2 b/s
Frame rate : 0.014 FPS
Count of elements : 86
Stream size : 2.25 KiB (0%)
Title : Forced
Language : Spanish (Latin America)
Default : Yes
Forced : Yes

Text #2
ID : 5
Format : UTF-8
Codec ID : S_TEXT/UTF8
Codec ID/Info : UTF-8 Plain Text
Duration : 1 h 53 min
Bit rate : 32 b/s
Frame rate : 0.114 FPS
Count of elements : 776
Stream size : 27.2 KiB (0%)
Language : Spanish (Latin America)
Default : No
Forced : No

Text #3
ID : 6
Format : UTF-8
Codec ID : S_TEXT/UTF8
Codec ID/Info : UTF-8 Plain Text
Duration : 1 h 54 min
Bit rate : 50 b/s
Frame rate : 0.241 FPS
Count of elements : 1656
Stream size : 42.6 KiB (0%)
Title : SDH
Language : English
Default : No
Forced : No


DESCARGA.PNG





⭐ 1 LINK MKV VIP ⭐

Mega.png

Tenemos TODO el material de Club-HD disponible por Mega, enlaces 100% activos y online hasta la fecha

Llévate tus cuentas Mega PRO III gratis con tu membresía VIP!
Todos los posts vivos con links de Mega.
Todo el material de Club-HD desbloqueado y sin publicidad.

Obtén más información sobre nuestras Membresías VIP


LINKS FREE PÚBLICOS

Fireload.png


¡Click aquí para descargar desde Fireload!


1cloudfile.png


¡Click aquí para descargar desde 1cloudfile!
 
Volver