Gravity (2013) 1080p BDRip Dual Latino-Inglés [Subt. Esp] (Thriller. Drama. Aventura)

Maestro Revolver

Administrador
Registro
9 Ago 2012
Mensajes
3.157
Reacciones (ptje)
55.205


Gravity-1080p.jpg





FichaTecnica.jpg


TÍTULO ORIGINAL: Gravity
AÑO: 2013
DURACIÓN: 90 min.
PAÍS: USA
DIRECTOR: Alfonso Cuarón
GUIÓN: Alfonso Cuarón, Jonás Cuarón
REPARTO: Sandra Bullock, George Clooney
PRODUCTORA: Warner Bros. Pictures / Esperanto Filmoj / Heyday Films
GÉNERO: Thriller. Drama. Aventuras | Aventura espacial. Supervivencia. 3-D
imdb-logo.png
: http://www.imdb.com/title/tt1454468/

Premios: 2013: Globos de Oro: 4 nominaciones, incluyendo mejor película y director
2013: Críticos de Los Angeles: Mejor película, director, montaje y fotografía
2013: Critics Choice: 10 nominaciones, incluyendo Mejor película
2013: American Film Institute: Top 10 - Mejores películas del año
2013: National Board of Review (NBR): Mejores 10 películas del año
2013: Satellite Awards: 8 nominaciones, incluyendo mejor película y director
2013: Festival de Venecia: Película de inaguración (fuera de concurso)




Sinopsis.jpg


Mientras reparan un satélite fuera de su nave, dos astronautas sufren un grave accidente y quedan flotando en el espacio. Son la doctora Ryan Stone, una brillante ingeniera que realiza su primera misión espacial, y el veterano astronauta Matt Kowalsky. La misión exterior parecía rutinaria, pero una lluvia de basura espacial les alcanza y se produce el desastre: el satélite y parte de la nave quedan destrozados, dejando a Ryan y Matt completamente solos, momento a partir del cual intentarán por todos los medios buscar una solución para volver a la Tierra.




Trailer.jpg






Capturas.jpg


1.jpg


2.jpg


3.jpg


4.jpg


5.jpg


6.jpg


La pelicula NO tiene ninguna marca... solo colocamos el nombre de esta web en las capturas




MediaInfo.jpg


Código:
General
Format                                   : Matroska
Format version                           : Version 2
File size                                : 7.20 GiB
Duration                                 : 1h 30mn
Overall bit rate                         : 11.3 Mbps
Movie name                               : www.club-hd.com
Encoded date                             : UTC 2014-02-08 00:21:06
Writing application                      : mkvmerge v5.7.0 ('The Whirlwind') built on Jul  8 2012 20:08:51
Writing library                          : libebml v1.2.3 + libmatroska v1.3.0

Video
ID                                       : 1
Format                                   : AVC
Format/Info                              : Advanced Video Codec
Format profile                           : [email protected]
Format settings, CABAC                   : Yes
Format settings, ReFrames                : 5 frames
Muxing mode                              : Header stripping
Codec ID                                 : V_MPEG4/ISO/AVC
Duration                                 : 1h 30mn
Bit rate                                 : 8 807 Kbps
Width                                    : 1 920 pixels
Height                                   : 800 pixels
Display aspect ratio                     : 2.40:1
Frame rate mode                          : Constant
Frame rate                               : 23.976 fps
Color space                              : YUV
Chroma subsampling                       : 4:2:0
Bit depth                                : 8 bits
Scan type                                : Progressive
Bits/(Pixel*Frame)                       : 0.239
Stream size                              : 5.45 GiB (76%)
Title                                    : www.club-hd.com
Writing library                          : x264 core 140 r2377 1ca7bb9
Language                                 : English
Default                                  : Yes
Forced                                   : No

Audio #1
ID                                       : 2
Format                                   : AC-3
Format/Info                              : Audio Coding 3
Mode extension                           : CM (complete main)
Format settings, Endianness              : Big
Muxing mode                              : Header stripping
Codec ID                                 : A_AC3
Duration                                 : 1h 30mn
Bit rate mode                            : Constant
Bit rate                                 : 384 Kbps
Channel(s)                               : 6 channels
Channel positions                        : Front: L C R, Side: L R, LFE
Sampling rate                            : 48.0 KHz
Bit depth                                : 16 bits
Compression mode                         : Lossy
Stream size                              : 250 MiB (3%)
Title                                    : www.club-hd.com  >>  Latino AC3
Language                                 : Spanish
Default                                  : Yes
Forced                                   : No

Audio #2
ID                                       : 3
Format                                   : AC-3
Format/Info                              : Audio Coding 3
Mode extension                           : CM (complete main)
Format settings, Endianness              : Big
Muxing mode                              : Header stripping
Codec ID                                 : A_AC3
Duration                                 : 1h 30mn
Bit rate mode                            : Constant
Bit rate                                 : 640 Kbps
Channel(s)                               : 6 channels
Channel positions                        : Front: L C R, Side: L R, LFE
Sampling rate                            : 48.0 KHz
Bit depth                                : 16 bits
Compression mode                         : Lossy
Stream size                              : 416 MiB (6%)
Title                                    : www.club-hd.com  >>  Inglés AC3
Language                                 : English
Default                                  : No
Forced                                   : No

Audio #3
ID                                       : 4
Format                                   : DTS
Format/Info                              : Digital Theater Systems
Mode                                     : 16
Format settings, Endianness              : Big
Muxing mode                              : Header stripping
Codec ID                                 : A_DTS
Duration                                 : 1h 30mn
Bit rate mode                            : Constant
Bit rate                                 : 1 509 Kbps
Channel(s)                               : 6 channels
Channel positions                        : Front: L C R, Side: L R, LFE
Sampling rate                            : 48.0 KHz
Bit depth                                : 24 bits
Compression mode                         : Lossy
Stream size                              : 982 MiB (13%)
Title                                    : www.club-hd.com  >>  Inglés DTS
Language                                 : English
Default                                  : No
Forced                                   : No

Text
ID                                       : 5
Format                                   : UTF-8
Codec ID                                 : S_TEXT/UTF8
Codec ID/Info                            : UTF-8 Plain Text
Language                                 : Spanish
Default                                  : No
Forced                                   : No

Menu
00:00:00.000                             : en:00:00:00.000
00:13:08.830                             : en:00:13:08.830
00:21:33.542                             : en:00:21:33.542
00:29:12.668                             : en:00:29:12.668
00:39:59.856                             : en:00:39:59.856
00:48:49.051                             : en:00:48:49.051
00:57:00.667                             : en:00:57:00.667
01:08:08.418                             : en:01:08:08.418
01:15:27.148                             : en:01:15:27.148
01:23:50.567                             : en:01:23:50.567




Descarga.jpg



MEGA.jpg

Tenemos TODO el material de Club-HD disponible por Mega, enlaces 100% activos y online hasta la fecha

Llévate tus cuentas Mega PRO III gratis con tu membresía VIP!
Todos los posts vivos con links de Mega.
Todo el material de Club-HD desbloqueado y sin publicidad.

Obtén más información sobre nuestras Membresías VIP



UPLOADED_BANNER.png

Para ver este contenido oculto, debes dar click en el botón"Like", o cualquiera de las otras reacciones:

Me Gusta Me Gusta, Me Encanta Me Encanta, Jaja Jaja, Wow Wow, Triste Triste, Molesto Molesto
 
Última edición por un moderador:
Aunque no es lo mismo verla en 50", sigue siendo un orgasmo visual!. Ya la esperaba y como siempre, gracias!
Desc_g_
 
Volver