Green Street Hooligans (2005) 720p BDRip Dual Latino-Inglés [Subt. Esp] (Drama)

Maestro Revolver

Administrador
9 Ago 2012
3.157
54.691


Green Street Hooligans (2005) 720p BDRip Dual Latino-Inglés [Subt. Esp] (Drama)




Green Street Hooligans (2005) 720p BDRip Dual Latino-Inglés [Subt. Esp] (Drama)


TÍTULO ORIGINAL: Green Street Hooligans
AÑO: 2005
DURACIÓN: 109 min.
PAÍS: Reino Unido
DIRECTOR: Lexi Alexander
GUIÓN: Lexi Alexander, Dougie Brimson, Joshua Shelov
REPARTO: Elijah Wood, Charlie Hunnam, Claire Forlani, Marc Warren, Leo Gregory, Geoff Bell, Kieran Bew, Henry Goodman, Christopher Hehir, Terence Jay, Rafe Spall
PRODUCTORA: Coproducción GB-USA; Baker Street / Odd Lot Entertainment
GÉNERO: Drama | Fútbol
Green Street Hooligans (2005) 720p BDRip Dual Latino-Inglés [Subt. Esp] (Drama)
: http://www.imdb.com/title/tt0385002/




Green Street Hooligans (2005) 720p BDRip Dual Latino-Inglés [Subt. Esp] (Drama)


Un joven erróneamente expulsado de Harvard se muda a Londres, donde se introduce en el violento mundo de los hooligans.




Green Street Hooligans (2005) 720p BDRip Dual Latino-Inglés [Subt. Esp] (Drama)






Green Street Hooligans (2005) 720p BDRip Dual Latino-Inglés [Subt. Esp] (Drama)


Green Street Hooligans (2005) 720p BDRip Dual Latino-Inglés [Subt. Esp] (Drama)


Green Street Hooligans (2005) 720p BDRip Dual Latino-Inglés [Subt. Esp] (Drama)


Green Street Hooligans (2005) 720p BDRip Dual Latino-Inglés [Subt. Esp] (Drama)


Green Street Hooligans (2005) 720p BDRip Dual Latino-Inglés [Subt. Esp] (Drama)


La pelicula NO tiene ninguna marca... solo colocamos el nombre de esta web en las capturas




Green Street Hooligans (2005) 720p BDRip Dual Latino-Inglés [Subt. Esp] (Drama)


Código:
General
Format                                   : Matroska
Format version                           : Version 2
File size                                : 3.80 GiB
Duration                                 : 1h 48mn
Overall bit rate                         : 4 996 Kbps
Movie name                               : www.club-hd.com
Encoded date                             : UTC 2013-10-09 03:47:21
Writing application                      : mkvmerge v5.7.0 ('The Whirlwind') built on Jul  8 2012 20:08:51
Writing library                          : libebml v1.2.3 + libmatroska v1.3.0

Video
ID                                       : 1
Format                                   : AVC
Format/Info                              : Advanced Video Codec
Format profile                           : [email protected]
Format settings, CABAC                   : Yes
Format settings, ReFrames                : 8 frames
Codec ID                                 : V_MPEG4/ISO/AVC
Duration                                 : 1h 48mn
Bit rate                                 : 4 257 Kbps
Nominal bit rate                         : 4 530 Kbps
Width                                    : 1 280 pixels
Height                                   : 720 pixels
Display aspect ratio                     : 16:9
Frame rate mode                          : Constant
Frame rate                               : 23.976 fps
Color space                              : YUV
Chroma subsampling                       : 4:2:0
Bit depth                                : 8 bits
Scan type                                : Progressive
Bits/(Pixel*Frame)                       : 0.193
Stream size                              : 3.24 GiB (85%)
Title                                    : www.club-hd.com
Writing library                          : x264 core 120
Language                                 : English
Default                                  : Yes
Forced                                   : No
Color primaries                          : BT.709
Transfer characteristics                 : BT.709
Matrix coefficients                      : BT.709

Audio #1
ID                                       : 2
Format                                   : AC-3
Format/Info                              : Audio Coding 3
Mode extension                           : CM (complete main)
Format settings, Endianness              : Big
Codec ID                                 : A_AC3
Duration                                 : 1h 48mn
Bit rate mode                            : Constant
Bit rate                                 : 192 Kbps
Channel(s)                               : 2 channels
Channel positions                        : Front: L R
Sampling rate                            : 48.0 KHz
Bit depth                                : 16 bits
Compression mode                         : Lossy
Stream size                              : 150 MiB (4%)
Title                                    : www.club-hd.com  >>  Latino
Language                                 : Spanish
Default                                  : Yes
Forced                                   : No

Audio #2
ID                                       : 3
Format                                   : AC-3
Format/Info                              : Audio Coding 3
Mode extension                           : CM (complete main)
Format settings, Endianness              : Big
Codec ID                                 : A_AC3
Duration                                 : 1h 48mn
Bit rate mode                            : Constant
Bit rate                                 : 448 Kbps
Channel(s)                               : 6 channels
Channel positions                        : Front: L C R, Side: L R, LFE
Sampling rate                            : 48.0 KHz
Bit depth                                : 16 bits
Compression mode                         : Lossy
Stream size                              : 349 MiB (9%)
Title                                    : www.club-hd.com  >>  Inglés
Language                                 : English
Default                                  : No
Forced                                   : No

Text
ID                                       : 4
Format                                   : UTF-8
Codec ID                                 : S_TEXT/UTF8
Codec ID/Info                            : UTF-8 Plain Text
Language                                 : Spanish
Default                                  : No
Forced                                   : No




Green Street Hooligans (2005) 720p BDRip Dual Latino-Inglés [Subt. Esp] (Drama)



Green Street Hooligans (2005) 720p BDRip Dual Latino-Inglés [Subt. Esp] (Drama)

Enlaces de Mega solo disponibles para Miembros VIP

Compra tu Membresía VIP y apoya a Club-HD!

ATENCIÓN! Tenemos TODO el material de Club-HD disponible por Mega, enlaces 100% activos y online hasta la fecha

Llévate tus cuentas Mega PRO III gratis con tu membresía VIP!
Todos los posts vivos con links de Mega.
Todo el material de Club-HD desbloqueado y sin publicidad.

Click Aquí para más información.

Green Street Hooligans (2005) 720p BDRip Dual Latino-Inglés [Subt. Esp] (Drama)

Para ver este contenido oculto, debes dar click en el botón "Like", o cualquiera de las otras reacciones:

Me Gusta Me Gusta, Me Encanta Me Encanta, Jaja Jaja, Wow Wow, Triste Triste, Molesto Molesto



 
Última edición por un moderador:
Arriba