Green Zone (2010) 720p BDRip Dual Latino-Inglés [Subt. Esp] (Bélico. Acción. Thriller)

Maestro Revolver

Administrador
Registro
9 Ago 2012
Mensajes
3.157
Reacciones (ptje)
55.165


Green-Zone.jpg




FichaTecnica.jpg


TÍTULO ORIGINAL: The Green Zone (AKA Imperial Life in the Emerald City)
AÑO: 2010
DURACIÓN: 118 min.
PAÍS: USA
DIRECTOR: Paul Greengrass
GUIÓN: Paul Greengrass (Libro: Rajiv Chandrasekaran)
REPARTO: Matt Damon, Greg Kinnear, Brendan Gleeson, Amy Ryan, Jason Isaacs, Khalid Abdalla, Yigal Naor, Said Faraj, Antoni Corone, Raad Rawi
PRODUCTORA: Universal Pictures / StudioCanal / Relativity Media / Working Title Films
GÉNERO: Bélico. Acción. Thriller | Guerra de Iraq. Política
imdb-logo.png
: http://www.imdb.com/title/tt0947810/




Sinopsis.jpg


En 2003, durante la ocupación de Bagdad por tropas estadounidenses, al subteniente Roy Miller (Matt Damon) y a su equipo les encargan la misión de buscar armas de destrucción masiva. Registran escondite tras escondite, a cual más peligroso, pero en vez de letales agentes químicos, descubren un elaborado plan que cambia el rumbo de su misión. Rodeado de agentes con objetivos contradictorios, Miller intenta averiguar la verdad a partir de una maraña de informaciones confusas.




Trailer.jpg






Capturas.jpg


1.jpg


2.jpg


3.jpg


4.jpg


La pelicula NO tiene ninguna marca... solo colocamos el nombre de esta web en las capturas




MediaInfo.jpg


Código:
General
Format                                   : Matroska
Format version                           : Version 2
File size                                : 2.88 GiB
Duration                                 : 1h 50mn
Overall bit rate                         : 3 741 Kbps
Movie name                               : www.club-hd.com
Encoded date                             : UTC 2013-10-10 04:08:30
Writing application                      : mkvmerge v5.7.0 ('The Whirlwind') built on Jul  8 2012 20:08:51
Writing library                          : libebml v1.2.3 + libmatroska v1.3.0

Video
ID                                       : 1
Format                                   : AVC
Format/Info                              : Advanced Video Codec
Format profile                           : [email protected]
Format settings, CABAC                   : Yes
Format settings, ReFrames                : 5 frames
Codec ID                                 : V_MPEG4/ISO/AVC
Duration                                 : 1h 50mn
Bit rate                                 : 2 579 Kbps
Width                                    : 1 280 pixels
Height                                   : 536 pixels
Display aspect ratio                     : 2.40:1
Frame rate mode                          : Constant
Frame rate                               : 25.000 fps
Original frame rate                      : 23.976 fps
Color space                              : YUV
Chroma subsampling                       : 4:2:0
Bit depth                                : 8 bits
Scan type                                : Progressive
Bits/(Pixel*Frame)                       : 0.150
Stream size                              : 1.98 GiB (69%)
Title                                    : www.club-hd.com
Writing library                          : x264 core 98 r1629 2e81ce1
Language                                 : English
Default                                  : Yes
Forced                                   : No

Audio #1
ID                                       : 2
Format                                   : AC-3
Format/Info                              : Audio Coding 3
Mode extension                           : CM (complete main)
Format settings, Endianness              : Big
Codec ID                                 : A_AC3
Duration                                 : 1h 50mn
Bit rate mode                            : Constant
Bit rate                                 : 640 Kbps
Channel(s)                               : 6 channels
Channel positions                        : Front: L C R, Side: L R, LFE
Sampling rate                            : 48.0 KHz
Bit depth                                : 16 bits
Compression mode                         : Lossy
Stream size                              : 504 MiB (17%)
Title                                    : www.club-hd.com  >>  Latino
Language                                 : Spanish
Default                                  : Yes
Forced                                   : No

Audio #2
ID                                       : 3
Format                                   : AC-3
Format/Info                              : Audio Coding 3
Mode extension                           : CM (complete main)
Format settings, Endianness              : Big
Codec ID                                 : A_AC3
Duration                                 : 1h 50mn
Bit rate mode                            : Constant
Bit rate                                 : 448 Kbps
Channel(s)                               : 6 channels
Channel positions                        : Front: L C R, Side: L R, LFE
Sampling rate                            : 48.0 KHz
Bit depth                                : 16 bits
Compression mode                         : Lossy
Stream size                              : 353 MiB (12%)
Title                                    : www.club-hd.com  >>  Inglés
Language                                 : English
Default                                  : No
Forced                                   : No

Text #1
ID                                       : 4
Format                                   : UTF-8
Codec ID                                 : S_TEXT/UTF8
Codec ID/Info                            : UTF-8 Plain Text
Title                                    : Forzados
Language                                 : Spanish
Default                                  : Yes
Forced                                   : No

Text #2
ID                                       : 5
Format                                   : UTF-8
Codec ID                                 : S_TEXT/UTF8
Codec ID/Info                            : UTF-8 Plain Text
Title                                    : Completos
Language                                 : Spanish
Default                                  : No
Forced                                   : No

Menu
00:00:00.000                             : :(unnamed)
00:05:00.000                             : :(unnamed)
00:10:00.000                             : :(unnamed)
00:15:00.000                             : :(unnamed)
00:20:00.000                             : :(unnamed)
00:25:00.000                             : :(unnamed)
00:30:00.000                             : :(unnamed)
00:35:00.000                             : :(unnamed)
00:40:00.000                             : :(unnamed)
00:45:00.000                             : :(unnamed)
00:50:00.000                             : :(unnamed)
00:55:00.000                             : :(unnamed)
01:00:00.000                             : :(unnamed)
01:05:00.000                             : :(unnamed)
01:10:00.000                             : :(unnamed)
01:15:00.000                             : :(unnamed)
01:20:00.000                             : :(unnamed)
01:25:00.000                             : :(unnamed)
01:30:00.000                             : :(unnamed)
01:35:00.000                             : :(unnamed)
01:40:00.000                             : :(unnamed)




Descarga.jpg



MEGA.jpg

Tenemos TODO el material de Club-HD disponible por Mega, enlaces 100% activos y online hasta la fecha

Llévate tus cuentas Mega PRO III gratis con tu membresía VIP!
Todos los posts vivos con links de Mega.
Todo el material de Club-HD desbloqueado y sin publicidad.

Obtén más información sobre nuestras Membresías VIP


1FICHIER-BANNER.png

Tenemos TODO el material de Club-HD disponible por Mega, enlaces 100% activos y online hasta la fecha

Llévate tus cuentas Mega PRO III gratis con tu membresía VIP!
Todos los posts vivos con links de Mega.
Todo el material de Club-HD desbloqueado y sin publicidad.

Obtén más información sobre nuestras Membresías VIP


UPLOADED_BANNER.png

Para ver este contenido oculto, debes dar click en el botón"Like", o cualquiera de las otras reacciones:

Me Gusta Me Gusta, Me Encanta Me Encanta, Jaja Jaja, Wow Wow, Triste Triste, Molesto Molesto

OPENLOAD.png

Para ver este contenido oculto, debes dar click en el botón"Like", o cualquiera de las otras reacciones:

Me Gusta Me Gusta, Me Encanta Me Encanta, Jaja Jaja, Wow Wow, Triste Triste, Molesto Molesto
 
Última edición por un moderador:
muy buena película esta la vi por accidente una vez porque la confundí con The Hurt Locker porque no me sabia el nombre jajajaja y me pareció buena
 
Volver