Grown Ups 2 (2013) 720p BDRip Audio Inglés [Subt. Esp] (Comedia)

Maestro Revolver

Administrador
Registro
9 Ago 2012
Mensajes
3.157
Reacciones (ptje)
55.041


Grown-Ups-2.jpg




FichaTecnica.jpg


TÍTULO ORIGINAL: Grown Ups 2
AÑO: 2013
DURACIÓN: 101 min.
PAÍS: USA
DIRECTOR: Dennis Dugan
GUIÓN: Fred Wolf, Adam Sandler, Tim Herlihy
REPARTO: Adam Sandler, Chris Rock, Kevin James, David Spade, Salma Hayek, Taylor Lautner, Maria Bello, Maya Rudolph, David Henrie, Oliver Cooper, Andy Samberg, Shaquille O'Neal, Jake Goldberg, Cameron Boyce, Alexander Ludwig
PRODUCTORA: Happy Madison Productions / Sony Pictures Entertainment (SPE)
GÉNERO: Comedia | Familia. Secuela
imdb-logo.png
: http://www.imdb.com/title/tt2191701/




Sinopsis.jpg


Lenny se ha trasladado con su familia a la pequeña ciudad donde tanto él como sus amigos se criaron. En esta ocasión, los adultos serán quienes reciban toda una lección de sus propios hijos. Secuela de "Niños grandes".




Trailer.jpg






Capturas.jpg


1.jpg


2.jpg


3.jpg


4.jpg


5.jpg


6.jpg


La pelicula NO tiene ninguna marca... solo colocamos el nombre de esta web en las capturas




MediaInfo.jpg


Código:
General
Format                                   : Matroska
Format version                           : Version 2
File size                                : 3.62 GiB
Duration                                 : 1h 40mn
Overall bit rate                         : 5 131 Kbps
Movie name                               : www.club-hd.com
Encoded date                             : UTC 2013-10-17 23:51:13
Writing application                      : mkvmerge v5.7.0 ('The Whirlwind') built on Jul  8 2012 20:08:51
Writing library                          : libebml v1.2.3 + libmatroska v1.3.0

Video
ID                                       : 1
Format                                   : AVC
Format/Info                              : Advanced Video Codec
Format profile                           : [email protected]
Format settings, CABAC                   : Yes
Format settings, ReFrames                : 5 frames
Codec ID                                 : V_MPEG4/ISO/AVC
Duration                                 : 1h 40mn
Bit rate                                 : 4 684 Kbps
Width                                    : 1 280 pixels
Height                                   : 688 pixels
Display aspect ratio                     : 1.85:1
Frame rate mode                          : Constant
Frame rate                               : 23.976 fps
Color space                              : YUV
Chroma subsampling                       : 4:2:0
Bit depth                                : 8 bits
Scan type                                : Progressive
Bits/(Pixel*Frame)                       : 0.222
Stream size                              : 3.23 GiB (89%)
Title                                    : www.club-hd.com
Writing library                          : x264 core 133 r2334 a3ac64b
Language                                 : English
Default                                  : Yes
Forced                                   : No

Audio
ID                                       : 2
Format                                   : AC-3
Format/Info                              : Audio Coding 3
Mode extension                           : CM (complete main)
Format settings, Endianness              : Big
Codec ID                                 : A_AC3
Duration                                 : 1h 40mn
Bit rate mode                            : Constant
Bit rate                                 : 448 Kbps
Channel(s)                               : 6 channels
Channel positions                        : Front: L C R, Side: L R, LFE
Sampling rate                            : 48.0 KHz
Bit depth                                : 16 bits
Compression mode                         : Lossy
Stream size                              : 324 MiB (9%)
Title                                    : www.club-hd.com
Language                                 : English
Default                                  : Yes
Forced                                   : No

Text
ID                                       : 3
Format                                   : UTF-8
Codec ID                                 : S_TEXT/UTF8
Codec ID/Info                            : UTF-8 Plain Text
Title                                    : www.club-hd.com
Language                                 : Spanish
Default                                  : Yes
Forced                                   : No

Menu
00:00:00.000                             : en:00:00:00.000
00:04:30.937                             : en:00:04:30.937
00:12:02.555                             : en:00:12:02.555
00:18:14.677                             : en:00:18:14.677
00:25:34.158                             : en:00:25:34.158
00:29:47.661                             : en:00:29:47.661
00:37:02.387                             : en:00:37:02.387
00:45:15.713                             : en:00:45:15.713
00:48:53.430                             : en:00:48:53.430
00:54:22.593                             : en:00:54:22.593
01:00:49.938                             : en:01:00:49.938
01:05:15.662                             : en:01:05:15.662
01:10:52.415                             : en:01:10:52.415
01:16:49.355                             : en:01:16:49.355
01:23:26.793                             : en:01:23:26.793
01:31:02.666                             : en:01:31:02.666




Descarga.jpg






 
Última edición por un moderador:
Volver