Halo 4: Forward Unto Dawn (2012) 720p BDRip Dual Latino-Inglés [Subt. Esp] (Ciencia ficción. Acción)

Maestro Revolver

Well-known member
Miembro del Staff
Administrador
Registro
9 Ago 2012
Mensajes
3.569
Reacciones
59.346
Puntos
113

Reputation:









TÍTULO ORIGINAL: Halo 4: Forward Unto Dawn
AÑO: 2012
DURACIÓN: 91 min.
PAÍS: USA
DIRECTOR: Stewart Hendler
GUIÓN: Aaron Helbing, Todd Helbing
REPARTO: Daniel Cudmore, Anna Popplewell, Tom Green, Iain Belcher, Jenna Berman, Enisha Brewster, Max Carver
PRODUCTORA: Microsoft / 343 Industries
GÉNERO: Ciencia ficción. Acción | Videojuego. Serie Online
: http://www.imdb.com/title/tt2262308/






Miniserie Online. 5 episodios. La acción de Halo 4: Forward Unto Dawn tiene lugar 20 años antes de los hechos narrados en Halo 4. La historia está protagonizada por un pelotón de jóvenes soldados de la United Nation Space Command (UNSC).
























La pelicula NO tiene ninguna marca... solo colocamos el nombre de esta web en las capturas






Código:
General
Format                                   : Matroska
Format version                           : Version 2
File size                                : 3.09 GiB
Duration                                 : 1h 31mn
Overall bit rate                         : 4 842 Kbps
Movie name                               : www.club-hd.com
Encoded date                             : UTC 2013-04-06 00:13:56
Writing application                      : mkvmerge v5.7.0 ('The Whirlwind') built on Jul  8 2012 20:08:51
Writing library                          : libebml v1.2.3 + libmatroska v1.3.0

Video
ID                                       : 1
Format                                   : AVC
Format/Info                              : Advanced Video Codec
Format profile                           : High@L4.1
Format settings, CABAC                   : Yes
Format settings, ReFrames                : 12 frames
Codec ID                                 : V_MPEG4/ISO/AVC
Duration                                 : 1h 31mn
Bit rate                                 : 4 200 Kbps
Width                                    : 1 280 pixels
Height                                   : 532 pixels
Display aspect ratio                     : 2.40:1
Frame rate mode                          : Constant
Frame rate                               : 23.976 fps
Color space                              : YUV
Chroma subsampling                       : 4:2:0
Bit depth                                : 8 bits
Scan type                                : Progressive
Bits/(Pixel*Frame)                       : 0.257
Stream size                              : 2.62 GiB (85%)
Title                                    : www.club-hd.com
Writing library                          : x264 core 128 r2216+688+33 06dac27 tMod+MixAQ [8-bit@4:2:0 X86_64]
Language                                 : English
Default                                  : Yes
Forced                                   : No

Audio #1
ID                                       : 2
Format                                   : AC-3
Format/Info                              : Audio Coding 3
Mode extension                           : CM (complete main)
Format settings, Endianness              : Big
Codec ID                                 : A_AC3
Duration                                 : 1h 31mn
Bit rate mode                            : Constant
Bit rate                                 : 192 Kbps
Channel(s)                               : 2 channels
Channel positions                        : Front: L R
Sampling rate                            : 48.0 KHz
Bit depth                                : 16 bits
Compression mode                         : Lossy
Stream size                              : 126 MiB (4%)
Title                                    : www.club-hd.com  >>  Latino
Language                                 : Spanish
Default                                  : Yes
Forced                                   : No

Audio #2
ID                                       : 3
Format                                   : AC-3
Format/Info                              : Audio Coding 3
Mode extension                           : CM (complete main)
Format settings, Endianness              : Big
Codec ID                                 : A_AC3
Duration                                 : 1h 31mn
Bit rate mode                            : Constant
Bit rate                                 : 448 Kbps
Channel(s)                               : 6 channels
Channel positions                        : Front: L C R, Side: L R, LFE
Sampling rate                            : 48.0 KHz
Bit depth                                : 16 bits
Compression mode                         : Lossy
Stream size                              : 293 MiB (9%)
Title                                    : www.club-hd.com  >>  Inglés
Language                                 : English
Default                                  : No
Forced                                   : No

Text
ID                                       : 4
Format                                   : UTF-8
Codec ID                                 : S_TEXT/UTF8
Codec ID/Info                            : UTF-8 Plain Text
Language                                 : Spanish
Default                                  : No
Forced                                   : No

Menu
00:00:00.000                             : en:00:00:00.000
00:04:14.546                             : en:00:04:14.546
00:07:44.464                             : en:00:07:44.464
00:08:31.928                             : en:00:08:31.928
00:12:39.968                             : en:00:12:39.968
00:16:24.692                             : en:00:16:24.692
00:20:13.212                             : en:00:20:13.212
00:25:52.968                             : en:00:25:52.968
00:28:22.200                             : en:00:28:22.200
00:31:57.207                             : en:00:31:57.207
00:36:17.842                             : en:00:36:17.842
00:40:53.868                             : en:00:40:53.868
00:44:32.461                             : en:00:44:32.461
00:46:29.495                             : en:00:46:29.495
00:49:45.441                             : en:00:49:45.441
00:53:58.402                             : en:00:53:58.402
00:57:03.086                             : en:00:57:03.086
01:03:23.133                             : en:01:03:23.133
01:08:56.257                             : en:01:08:56.257
01:12:07.156                             : en:01:12:07.156
01:18:15.357                             : en:01:18:15.357
01:24:02.079                             : en:01:24:02.079








Enlaces de Mega y Fireload solo disponibles para Miembros VIP

Compra tu Membresía VIP y apoya a Club-HD!

ATENCIÓN! Tenemos TODO el material de Club-HD disponible por Mega y Fireload, enlaces 100% activos y online hasta la fecha

Llévate tus cuentas Mega PRO II gratis con tu membresía VIP!
Todos los posts vivos con links de Mega y Fireload.
Todo el material de Club-HD desbloqueado y sin publicidad.

Click Aquí para más información.



Para ver este contenido oculto, debes dar click en una de las siguientes reacciones : Like Like, Love Love, Haha Haha, Wow Wow, Sad Sad, Angry Angry
 
Última edición por un moderador:

eljumachi

Well-known member
Miembro VIP
Registro
27 Ago 2012
Mensajes
2.174
Reacciones
339
Puntos
83

Reputation:

Gracias R21 a ver que tal bajando y esperando la bajada con ansias saludos .
 

Omar Herrera

Well-known member
Miembro del Staff
Súper Moderador
Registro
27 Ago 2012
Mensajes
1.234
Reacciones
325
Puntos
83
Edad
32
Ubicación
Managua

Reputation:

Ya me pase en Halo 4 y vi la pelicula.. ni el juego ni la pelicula son la gran cosa :crcjd:
Eso no desamerita el gran trabajo de el Maste Revolver, Gracias amigo por todo tu esfuerzo, eres el mejor!! Pl4yb0y
 

edward1080

Well-known member
Registro
23 Nov 2012
Mensajes
1.013
Reacciones
137
Puntos
63
Edad
34

Reputation:

Aun no la descargue, y ahora con audio latino sera oportunidad para hacerlo, gracias Master!!
 

Usuarios Que Están Viendo Este Tema (Total: 1, Miembros: 0, Invitados: 1)

Arriba