Hammer of the Gods (2013) m-1080p BDRip Audio Inglés [Subt. Esp] (Acción. Aventura)

Maestro Revolver

Administrador
Registro
9 Ago 2012
Mensajes
3.157
Reacciones (ptje)
54.925


Hammer-of-the-Gods.jpg




FichaTecnica.jpg


TÍTULO ORIGINAL: Hammer of the Gods
AÑO: 2013
DURACIÓN: 118 min.
PAÍS: Reino Unido
DIRECTOR: Farren Blackburn
GUIÓN: Matthew Read
REPARTO: Charlie Bewley, Clive Standen, James Cosmo, Francis Magee, Elliot Cowan, Glynis Barber, Ivan Kaye, Michael Jibson, Guy Flanagan, Theo Barklem-Biggs, Alexandra Dowling, Finlay Robertson, Michael Lindall, Susan Fordham
PRODUCTORA: Vertigo Films
GÉNERO: Acción. Aventuras | Vikingos
imdb-logo.png
: http://www.imdb.com/title/tt2193418/




Sinopsis.jpg


Trata de la transformación de un apasionado joven que se transformará en guerrero haciendo un épico viaje en busca de su hermano perdido, de nombre “Hakan The Ferrocious”, para restablecer el orden en su reino.




Trailer.jpg






Capturas.jpg


1.jpg


2.jpg


3.jpg


4.jpg


5.jpg


6.jpg


La pelicula NO tiene ninguna marca... solo colocamos el nombre de esta web en las capturas




MediaInfo.jpg


Código:
General
Format                                   : Matroska
Format version                           : Version 2
File size                                : 3.65 GiB
Duration                                 : 1h 38mn
Overall bit rate                         : 5 281 Kbps
Movie name                               : www.club-hd.com
Encoded date                             : UTC 2013-08-23 15:44:52
Writing application                      : mkvmerge v5.7.0 ('The Whirlwind') built on Jul  8 2012 20:08:51
Writing library                          : libebml v1.2.3 + libmatroska v1.3.0

Video
ID                                       : 1
Format                                   : AVC
Format/Info                              : Advanced Video Codec
Format profile                           : [email protected]
Format settings, CABAC                   : Yes
Format settings, ReFrames                : 4 frames
Codec ID                                 : V_MPEG4/ISO/AVC
Duration                                 : 1h 38mn
Bit rate                                 : 4 750 Kbps
Width                                    : 1 920 pixels
Height                                   : 800 pixels
Display aspect ratio                     : 2.40:1
Frame rate mode                          : Constant
Frame rate                               : 23.976 fps
Color space                              : YUV
Chroma subsampling                       : 4:2:0
Bit depth                                : 8 bits
Scan type                                : Progressive
Bits/(Pixel*Frame)                       : 0.129
Stream size                              : 3.13 GiB (86%)
Title                                    : www.club-hd.com
Writing library                          : x264 core 112
Language                                 : English
Default                                  : Yes
Forced                                   : No
Color primaries                          : BT.709
Transfer characteristics                 : BT.709
Matrix coefficients                      : BT.709

Audio
ID                                       : 2
Format                                   : AC-3
Format/Info                              : Audio Coding 3
Mode extension                           : CM (complete main)
Format settings, Endianness              : Big
Codec ID                                 : A_AC3
Duration                                 : 1h 38mn
Bit rate mode                            : Constant
Bit rate                                 : 640 Kbps
Channel(s)                               : 6 channels
Channel positions                        : Front: L C R, Side: L R, LFE
Sampling rate                            : 48.0 KHz
Bit depth                                : 16 bits
Compression mode                         : Lossy
Stream size                              : 452 MiB (12%)
Title                                    : www.club-hd.com
Language                                 : English
Default                                  : Yes
Forced                                   : No

Text
ID                                       : 3
Format                                   : UTF-8
Codec ID                                 : S_TEXT/UTF8
Codec ID/Info                            : UTF-8 Plain Text
Language                                 : Spanish
Default                                  : Yes
Forced                                   : No

Menu
00:00:00.000                             : en:Chapter 1
00:06:49.534                             : en:Chapter 2
00:13:58.462                             : en:Chapter 3
00:21:47.556                             : en:Chapter 4
00:28:49.561                             : en:Chapter 5
00:35:23.496                             : en:Chapter 6
00:39:41.545                             : en:Chapter 7
00:45:47.035                             : en:Chapter 8
00:51:43.683                             : en:Chapter 9
00:58:29.422                             : en:Chapter 10
01:06:02.959                             : en:Chapter 11
01:11:48.345                             : en:Chapter 12
01:18:12.979                             : en:Chapter 13
01:24:07.500                             : en:Chapter 14
01:29:57.517                             : en:Chapter 15
01:35:10.204                             : en:Chapter 16




Descarga.jpg



MEGA.jpg

Tenemos TODO el material de Club-HD disponible por Mega, enlaces 100% activos y online hasta la fecha

Llévate tus cuentas Mega PRO III gratis con tu membresía VIP!
Todos los posts vivos con links de Mega.
Todo el material de Club-HD desbloqueado y sin publicidad.

Obtén más información sobre nuestras Membresías VIP


UPLOADED_BANNER.png

Para ver este contenido oculto, debes dar click en el botón"Like", o cualquiera de las otras reacciones:

Me Gusta Me Gusta, Me Encanta Me Encanta, Jaja Jaja, Wow Wow, Triste Triste, Molesto Molesto



 
Última edición por un moderador:
Gracias Revolver22 se ve que es una estupenda peñicula! saludos a todos los amigos del club-hd
 
Muchas gracias por este estreno veremos a ver que tal. ;):aplausos::aplausos:

Gracias Monstruo.:dplgar::dplgar:
 
Se ve buena, vamos a ver que tal, gracias por compartir, a descargar...
 
volvieron y volvieron en grande espero que los que les siga el error pronto se les solucione !
 
Volver