Hansel and Gretel: Witch Hunters (2013) 3D H-SBS 1080p BDRip Dual Latino-Inglés [Subt. Esp] (Fantástico. Aventura)

Maestro Revolver

Administrador
Registro
9 Ago 2012
Mensajes
3.157
Reacciones (ptje)
55.062


HanselandGretel-3D.jpg




FichaTecnica.jpg


TÍTULO ORIGINAL: Hansel and Gretel: Witch Hunters
AÑO: 2013
DURACIÓN: 88 min.
PAÍS: USA
DIRECTOR: Tommy Wirkola
GUIÓN: Dante Harper, Tommy Wirkola
REPARTO: Jeremy Renner, Gemma Arterton, Peter Stormare, Famke Janssen, Zoe Bell, Derek Mears, Ingrid Bolsø Berdal (AKA Ingrid Bolso Berdal)
PRODUCTORA: Coproducción EEUU-Alemania; MGM / Siebzehnte Babelsberg / Gary Sanchez Productions
GÉNERO: Fantástico. Aventuras. Terror. Acción | Brujería. Cuentos. 3-D
imdb-logo.png
: http://www.imdb.com/title/tt1428538/




Sinopsis.jpg


Han pasado quince años desde que Hansel (Jeremy Renner) y Gretel (Gemma Arterton) vivieron la aventura que los hizo famosos. Tras probar el sabor de la sangre siendo unos niños, ambos se han convertido en unos auténticos justicieros, dispuestos a todo para vengarse. Pero ahora, sin que ellos lo sepan, también se han convertido en la presa, y tienen que enfrentarse a algo mucho más siniestro que las brujas: su pasado.




Trailer.jpg






Capturas.jpg


1.jpg


2.jpg


3.jpg


4.jpg


5.jpg


6.jpg


La pelicula NO tiene ninguna marca... solo colocamos el nombre de esta web en las capturas




MediaInfo.jpg


Código:
General
Format                                   : Matroska
Format version                           : Version 2
File size                                : 8.43 GiB
Duration                                 : 1h 27mn
Overall bit rate                         : 13.7 Mbps
Movie name                               : www.club-hd.com
Encoded date                             : UTC 2013-05-16 21:15:16
Writing application                      : mkvmerge v5.7.0 ('The Whirlwind') built on Jul  8 2012 20:08:51
Writing library                          : libebml v1.2.3 + libmatroska v1.3.0

Video
ID                                       : 1
Format                                   : AVC
Format/Info                              : Advanced Video Codec
Format profile                           : [email protected]
Format settings, CABAC                   : Yes
Format settings, ReFrames                : 2 frames
Codec ID                                 : V_MPEG4/ISO/AVC
Duration                                 : 1h 27mn
Bit rate                                 : 12.2 Mbps
Width                                    : 1 920 pixels
Height                                   : 1 080 pixels
Display aspect ratio                     : 16:9
Frame rate mode                          : Constant
Frame rate                               : 23.976 fps
Color space                              : YUV
Chroma subsampling                       : 4:2:0
Bit depth                                : 8 bits
Scan type                                : Progressive
Bits/(Pixel*Frame)                       : 0.245
Stream size                              : 7.47 GiB (89%)
Title                                    : www.club-hd.com
Writing library                          : x264 core
Language                                 : English
Default                                  : Yes
Forced                                   : No
Color primaries                          : BT.709
Transfer characteristics                 : BT.709
Matrix coefficients                      : BT.709

Audio #1
ID                                       : 2
Format                                   : AC-3
Format/Info                              : Audio Coding 3
Mode extension                           : CM (complete main)
Format settings, Endianness              : Big
Codec ID                                 : A_AC3
Duration                                 : 1h 27mn
Bit rate mode                            : Constant
Bit rate                                 : 640 Kbps
Channel(s)                               : 6 channels
Channel positions                        : Front: L C R, Side: L R, LFE
Sampling rate                            : 48.0 KHz
Bit depth                                : 16 bits
Compression mode                         : Lossy
Stream size                              : 403 MiB (5%)
Title                                    : www.club-hd.com  >>  Latino
Language                                 : Spanish
Default                                  : Yes
Forced                                   : No

Audio #2
ID                                       : 3
Format                                   : AC-3
Format/Info                              : Audio Coding 3
Mode extension                           : CM (complete main)
Format settings, Endianness              : Big
Codec ID                                 : A_AC3
Duration                                 : 1h 27mn
Bit rate mode                            : Constant
Bit rate                                 : 640 Kbps
Channel(s)                               : 6 channels
Channel positions                        : Front: L C R, Side: L R, LFE
Sampling rate                            : 48.0 KHz
Bit depth                                : 16 bits
Compression mode                         : Lossy
Stream size                              : 403 MiB (5%)
Title                                    : www.club-hd.com  >>  Inglés
Language                                 : English
Default                                  : No
Forced                                   : No

Text #1
ID                                       : 4
Format                                   : UTF-8
Codec ID                                 : S_TEXT/UTF8
Codec ID/Info                            : UTF-8 Plain Text
Title                                    : Forzados
Language                                 : Spanish
Default                                  : Yes
Forced                                   : No

Text #2
ID                                       : 5
Format                                   : UTF-8
Codec ID                                 : S_TEXT/UTF8
Codec ID/Info                            : UTF-8 Plain Text
Language                                 : Spanish
Default                                  : No
Forced                                   : No

Menu
00:00:00.000                             : en:00:00:00.000
00:08:56.828                             : en:00:08:56.828
00:15:57.790                             : en:00:15:57.790
00:24:07.112                             : en:00:24:07.112
00:32:17.936                             : en:00:32:17.936
00:40:12.869                             : en:00:40:12.869
00:46:45.636                             : en:00:46:45.636
00:52:22.097                             : en:00:52:22.097
01:00:20.033                             : en:01:00:20.033
01:05:05.652                             : en:01:05:05.652
01:12:49.657                             : en:01:12:49.657
01:19:01.820                             : en:01:19:01.820




Descarga.jpg



MEGA.jpg

Tenemos TODO el material de Club-HD disponible por Mega, enlaces 100% activos y online hasta la fecha

Llévate tus cuentas Mega PRO III gratis con tu membresía VIP!
Todos los posts vivos con links de Mega.
Todo el material de Club-HD desbloqueado y sin publicidad.

Obtén más información sobre nuestras Membresías VIP


UPLOADED_BANNER.png

Para ver este contenido oculto, debes dar click en el botón"Like", o cualquiera de las otras reacciones:

Me Gusta Me Gusta, Me Encanta Me Encanta, Jaja Jaja, Wow Wow, Triste Triste, Molesto Molesto

 
Última edición por un moderador:
Lo que siento es amorrrrrrrrrrrrrrrrr Xd
Excelente aporte men gracias de corazónnnnnnnnnnnnnn :)
Respect.
Revolver sigue asi trayendo lo mejor de lo mejor :dplgar::dplgar:
 
:OHHH: Revol, no he terminado de bajar la 1080 y tu ya antojando trayendola en 3D, eres un monstruo insuperable :dplgar:, Muchas gracias por todo el tiempo dedicado a esta gran comunidad Club-HD:aplausos:, Bendiciones y Muchos Exitos !!! :LXR::LXR:
 
excelenteee me preguntaba si la iban a subir, te pasaste gracias por el aporte !!!
 
Muchas gracias por este estreno y en 3D, no se puede pedir mas.:aplausos::aplausos::aplausos:

Gracias Monstruo R21!!:aplausos::aplausos::dplgar:
 
Volver