Hatchet III (2013) 720p BDRip Audio Inglés [Subt. Esp] (Acción. Comedia. Terror)

Maestro Revolver

Well-known member
Miembro del Staff
Administrador
Registro
9 Ago 2012
Mensajes
3.567








TÍTULO ORIGINAL: Hatchet III (Hatchet 3)
AÑO: 2013
PAÍS: USA
DIRECTOR: BJ McDonnell
GUIÓN: Adam Green
REPARTO: Danielle Harris, Kane Hodder, Zach Galligan, Caroline Williams, Derek Mears, Cody Blue Snider, Rileah Vanderbilt, Robert Diago DoQui, Sean Whalen, Jason Trost, Diane Ayala Goldner, John Michael Sudol
PRODUCTORA: Dark Sky Films / ArieScope Pictures
GÉNERO: Acción. Comedia. Terror. Thriller | Slasher. Secuela
: http://www.imdb.com/title/tt1870419/






La película continua con la historia del villano Victor Crowley. Un equipo de búsqueda y rescate se dirige hacia el espeluznante pantano para retomar la continuación a las dos películas anteriores. Harris tratará de descubrir el secreto que finalice con la maldición vudú que permite al fantasma de Crowley masacrar a la gente de Honey Island Swamp durante décadas.
























La pelicula NO tiene ninguna marca... solo colocamos el nombre de esta web en las capturas






Código:
General
Format                                   : Matroska
Format version                           : Version 2
File size                                : 2.78 GiB
Duration                                 : 1h 21mn
Overall bit rate                         : 4 891 Kbps
Movie name                               : www.club-hd.com
Encoded date                             : UTC 2013-07-30 23:36:51
Writing application                      : mkvmerge v5.7.0 ('The Whirlwind') built on Jul  8 2012 20:08:51
Writing library                          : libebml v1.2.3 + libmatroska v1.3.0

Video
ID                                       : 1
Format                                   : AVC
Format/Info                              : Advanced Video Codec
Format profile                           : High@L4.1
Format settings, CABAC                   : Yes
Format settings, ReFrames                : 5 frames
Codec ID                                 : V_MPEG4/ISO/AVC
Duration                                 : 1h 21mn
Bit rate                                 : 4 250 Kbps
Width                                    : 1 280 pixels
Height                                   : 536 pixels
Display aspect ratio                     : 2.40:1
Frame rate mode                          : Constant
Frame rate                               : 23.976 fps
Color space                              : YUV
Chroma subsampling                       : 4:2:0
Bit depth                                : 8 bits
Scan type                                : Progressive
Bits/(Pixel*Frame)                       : 0.258
Stream size                              : 2.36 GiB (85%)
Title                                    : www.club-hd.com
Writing library                          : x264 core 133 r2334 a3ac64b
Language                                 : English
Default                                  : Yes
Forced                                   : No

Audio
ID                                       : 2
Format                                   : AC-3
Format/Info                              : Audio Coding 3
Mode extension                           : CM (complete main)
Format settings, Endianness              : Big
Codec ID                                 : A_AC3
Duration                                 : 1h 21mn
Bit rate mode                            : Constant
Bit rate                                 : 640 Kbps
Channel(s)                               : 6 channels
Channel positions                        : Front: L C R, Side: L R, LFE
Sampling rate                            : 48.0 KHz
Bit depth                                : 16 bits
Compression mode                         : Lossy
Stream size                              : 373 MiB (13%)
Title                                    : www.club-hd.com
Language                                 : English
Default                                  : Yes
Forced                                   : No

Text
ID                                       : 3
Format                                   : UTF-8
Codec ID                                 : S_TEXT/UTF8
Codec ID/Info                            : UTF-8 Plain Text
Title                                    : www.club-hd.com
Language                                 : Spanish
Default                                  : Yes
Forced                                   : No

Menu
00:00:00.000                             : en:00:00:00.000
00:06:19.421                             : en:00:06:19.421
00:12:31.209                             : en:00:12:31.209
00:17:11.739                             : en:00:17:11.739
00:20:56.964                             : en:00:20:56.964
00:24:33.597                             : en:00:24:33.597
00:29:19.883                             : en:00:29:19.883
00:36:17.592                             : en:00:36:17.592
00:42:27.336                             : en:00:42:27.336
00:46:48.472                             : en:00:46:48.472
00:51:58.490                             : en:00:51:58.490
00:56:30.137                             : en:00:56:30.137
01:02:28.453                             : en:01:02:28.453
01:06:30.361                             : en:01:06:30.361
01:10:01.239                             : en:01:10:01.239
01:13:56.140                             : en:01:13:56.140
01:17:22.096                             : en:01:17:22.096








Enlaces de Mega y Google Drive solo disponibles para Miembros VIP

Compra tu Membresía VIP y apoya a Club-HD!

ATENCIÓN! Tenemos TODO el material de Club-HD disponible por Mega y Google Drive, enlaces 100% activos y online hasta la fecha

Llévate tus cuentas Mega PRO III gratis con tu membresía VIP!
Todos los posts vivos con links de Mega y Google Drive.
Todo el material de Club-HD desbloqueado y sin publicidad.

Click Aquí para más información.


Para ver este contenido oculto, debes dar click en una de las siguientes reacciones : Like Like, Love Love, Haha Haha, Wow Wow, Sad Sad, Angry Angry

 
Última edición por un moderador:

Doctor Jason

New member
Súper Moderador
Registro
1 Sep 2012
Mensajes
2.398
Ubicación
Buenos Aires
Síííííííííííí!!!!! Gracias, Muchisimas Gracias Revolver!!! Estas son mis favoritas, llenas de desmembramientos sin sentido, litros de sangre a montones, humor negro, un psicópata alocado machacando personas, estoy en mi salsa (de tomate, obvio):D que más puedo pedir. Diversion Asegurada Amiguitos!!!
Victor Crowley vino para quedarse igual que Jason Voorhees, Michael Myres, Leatherface.Hurr4h


Doctor Jason y Su Data Inútil:

Sabías que el actor Kane Hodder que interpreta a Victor Crowley en la trilogia "Hatchet", también interpreto a el más grande entre los grandes asesinos seriales "Jason Voorhees" en Friday the 13th part VII, The new blood (1988),Friday the 13th part VIII, Jason takes Manhattan (1989), Friday the 13th part IX, Jason goes to hell: The final friday (1993) y Jason X (2001), bueno ahora que lo sabes contáselo a la minita que tanto te gusta y despues me contas como te fue.:dplgar:



Saludos.bye
 

Usuarios Que Están Viendo Este Tema (Total: 1, Miembros: 0, Invitados: 1)

Quién Leyó Este Tema (Total Miembros: 2)

Arriba