Hellsing Ultimate Ova 2 (2006) 1080p Bluray Dual Japones-Ingles [Subt. Esp-Ing] (Anime. Animación)

Max

Admin

Administrador
Registro
8 Ago 2012
Mensajes
6.238
Reacciones (ptje)
26.947

Hellsing_Ultimate_Ova_2_POSTER.jpg



TÍTULO ORIGINAL: Hellsing Ultimate (Hellsing Ultimate OVA series) (AKA Hellsing Ultimate's OVAs)
OTROS TÍTULOS: Hellsing Ultimate Ova 2
AÑO: 2006
DURACIÓN: 42 min.
PAÍS: Japón
DIRECTOR: Tomokazu Tokoro, Hiroyuki Tanaka
GUIÓN: Hideyuki Kurata, Yosuke Kuroda
MÚSICA: Hayato Matsuo
FOTOGRAFÍA: Animation
REPARTO: Animation
PRODUCTORA: Statelight / Madhouse / Graphinica Inc / Kelmadick
GÉNERO: Anime. Animación. Fantástico. Acción. Terror | Vampiros. Miniserie de TV. Manga

IMDb.png
http://www.imdb.com/title/tt1564640/




SINOPSIS.png


Alucard tiene un sueño sobre su derrota a manos de Abraham Van Helsing. Mientras Sir Integra mantiene una conferencia en la mesa redonda para informar sobre sus hallazgos respecto de la actual ola de ataques de vampiros, los hermanos vampiros Jan y Luke Valentine lanzan un ataque furtivo sorpresa encubierto en el recinto Hellsing con la ayuda de un ejército ghoul equipado con equipo militar y armas pequeñas. Casi todos los soldados de Hellsing son asesinados en el proceso y convertidos en ghouls ante Alucard, Seras y Walter C. Dornez (quien muestra del por qué una vez fue conocido como el "Ángel de la Muerte") son capaces de cambiar el rumbo. Jan revela el nombre del grupo responsable del ataque como Millennium. Integra da a entender a Walter que los oficiales sobrevivientes de los nazis podrían haber sido responsable del ataque.




YOUTUBE_LOGO.png






CAPTURAS.png


Hellsing_Ultimate_Ova_2_CAPTURA-1.jpg


Hellsing_Ultimate_Ova_2_CAPTURA-2.jpg


Hellsing_Ultimate_Ova_2_CAPTURA-3.jpg


Hellsing_Ultimate_Ova_2_CAPTURA-4.jpg


Hellsing_Ultimate_Ova_2_CAPTURA-5.jpg


Hellsing_Ultimate_Ova_2_CAPTURA-6.jpg


Hellsing_Ultimate_Ova_2_CAPTURA-7.jpg


Hellsing_Ultimate_Ova_2_CAPTURA-8.jpg


Hellsing_Ultimate_Ova_2_CAPTURA-9.jpg


Hellsing_Ultimate_Ova_2_CAPTURA-10.jpg


Hellsing_Ultimate_Ova_2_CAPTURA-11.jpg


Hellsing_Ultimate_Ova_2_CAPTURA-12.jpg


Hellsing_Ultimate_Ova_2_CAPTURA-13.jpg


Hellsing_Ultimate_Ova_2_CAPTURA-14.jpg


Hellsing_Ultimate_Ova_2_CAPTURA-15.jpg


Hellsing_Ultimate_Ova_2_CAPTURA-16.jpg





DATOS_TECNICOS.png


Código:
General
Complete name                    : Hellsing Ultimate Ova 2 (2006) 1080p Bluray Dual Japones-Ingles [Subt. Esp-Ing].mkv
Format                           : Matroska
Format version                   : Version 2
File size                        : 3.19 GiB
Duration                         : 42mn 43s
Overall bit rate mode            : Variable
Overall bit rate                 : 10.7 Mbps
Movie name                       : www.club-hd.com --> Hellsing Ultimate Ova 2 (2006) 1080p Bluray Dual Japones-Ingles [Subt. Esp-Ing]
Encoded date                     : UTC 2012-10-11 14:35:04
Writing application              : mkvmerge v5.8.0 ('No Sleep / Pillow') built on Sep  2 2012 15:37:04
Writing library                  : libebml v1.2.3 + libmatroska v1.3.0
Attachment                       : Yes

Video
ID                               : 1
Format                           : AVC
Format/Info                      : Advanced Video Codec
Format profile                   : [email protected]
Format settings, CABAC           : Yes
Format settings, ReFrames        : 4 frames
Codec ID                         : V_MPEG4/ISO/AVC
Duration                         : 42mn 43s
Width                            : 1 920 pixels
Height                           : 1 080 pixels
Display aspect ratio             : 16:9
Frame rate mode                  : Variable
Frame rate                       : 23.810 fps
Color space                      : YUV
Chroma subsampling               : 4:2:0
Bit depth                        : 8 bits
Scan type                        : Progressive
Title                            : www.club-hd.com --> Hellsing Ultimate Ova 2 (2006) 1080p Bluray Dual Japones-Ingles [Subt. Esp-Ing]
Language                         : Japanese
Default                          : Yes
Forced                           : No

Audio #1
ID                               : 2
Format                           : AC-3
Format/Info                      : Audio Coding 3
Mode extension                   : CM (complete main)
Codec ID                         : A_AC3
Duration                         : 42mn 43s
Bit rate mode                    : Constant
Bit rate                         : 640 Kbps
Channel(s)                       : 6 channels
Channel positions                : Front: L C R, Side: L R, LFE
Sampling rate                    : 48.0 KHz
Bit depth                        : 16 bits
Compression mode                 : Lossy
Stream size                      : 196 MiB (6%)
Title                            : www.club-hd.com --> Hellsing Ultimate Ova 2 (2006) - Japones AC3 5.1
Language                         : Japanese
Default                          : Yes
Forced                           : No

Audio #2
ID                               : 3
Format                           : AC-3
Format/Info                      : Audio Coding 3
Mode extension                   : CM (complete main)
Codec ID                         : A_AC3
Duration                         : 42mn 43s
Bit rate mode                    : Constant
Bit rate                         : 640 Kbps
Channel(s)                       : 6 channels
Channel positions                : Front: L C R, Side: L R, LFE
Sampling rate                    : 48.0 KHz
Bit depth                        : 16 bits
Compression mode                 : Lossy
Stream size                      : 196 MiB (6%)
Title                            : www.club-hd.com --> Hellsing Ultimate Ova 2 (2006) - Ingles AC3 5.1
Language                         : English
Default                          : No
Forced                           : No

Audio #3
ID                               : 4
Format                           : FLAC
Format/Info                      : Free Lossless Audio Codec
Codec ID                         : A_FLAC
Duration                         : 42mn 43s
Bit rate mode                    : Variable
Channel(s)                       : 6 channels
Channel positions                : Front: L C R, Back: L R, LFE
Sampling rate                    : 48.0 KHz
Bit depth                        : 24 bits
Title                            : www.club-hd.com --> Hellsing Ultimate Ova 2 (2006) - (Japanese Blu-ray Audio) Japones FLAC 5.1
Writing library                  : libFLAC 1.2.1 (UTC 2007-09-17)
Language                         : Japanese
Default                          : No
Forced                           : No

Audio #4
ID                               : 5
Format                           : DTS
Format/Info                      : Digital Theater Systems
Codec ID                         : A_DTS
Duration                         : 42mn 43s
Bit rate mode                    : Constant
Bit rate                         : 1 510 Kbps
Channel(s)                       : 6 channels
Channel positions                : Front: L C R, Side: L R, LFE
Sampling rate                    : 48.0 KHz
Bit depth                        : 24 bits
Compression mode                 : Lossy
Stream size                      : 461 MiB (14%)
Title                            : www.club-hd.com --> Hellsing Ultimate Ova 2 (2006) - Ingles DTS 5.1
Language                         : English
Default                          : No
Forced                           : No

Text #1
ID                               : 6
Format                           : UTF-8
Codec ID                         : S_TEXT/UTF8
Codec ID/Info                    : UTF-8 Plain Text
Language                         : Spanish
Default                          : Yes
Forced                           : No

Text #2
ID                               : 7
Format                           : UTF-8
Codec ID                         : S_TEXT/UTF8
Codec ID/Info                    : UTF-8 Plain Text
Language                         : English
Default                          : No
Forced                           : No



Más información sobre Hellsing. Aquí!




DESCARGA.png




google-drive-vip.png


Tenemos TODO el material de Club-HD disponible por Mega, enlaces 100% activos y online hasta la fecha

Llévate tus cuentas Mega PRO III gratis con tu membresía VIP!
Todos los posts vivos con links de Mega.
Todo el material de Club-HD desbloqueado y sin publicidad.

Obtén más información sobre nuestras Membresías VIP



MEGA.jpg

Tenemos TODO el material de Club-HD disponible por Mega, enlaces 100% activos y online hasta la fecha

Llévate tus cuentas Mega PRO III gratis con tu membresía VIP!
Todos los posts vivos con links de Mega.
Todo el material de Club-HD desbloqueado y sin publicidad.

Obtén más información sobre nuestras Membresías VIP



1FICHIER-BANNER.png

Tenemos TODO el material de Club-HD disponible por Mega, enlaces 100% activos y online hasta la fecha

Llévate tus cuentas Mega PRO III gratis con tu membresía VIP!
Todos los posts vivos con links de Mega.
Todo el material de Club-HD desbloqueado y sin publicidad.

Obtén más información sobre nuestras Membresías VIP



OPENLOAD.png


Para ver este contenido oculto, debes dar click en el botón"Like", o cualquiera de las otras reacciones:

Me Gusta Me Gusta, Me Encanta Me Encanta, Jaja Jaja, Wow Wow, Triste Triste, Molesto Molesto
 
Última edición por un moderador:
yo la miro en la tele samsung led yo les informo en cuanto la descargue si esta bien... muchas gracias se agradece su dedicacion
 
Gracias Max! ahora después de que Nosferatu me haya dicho el orden de ver éste gran animé, voy a disfrutar de los OVA's
 
Exceleeenteeeeeeee...............

....Tengo la uno........

...Ahora bajo esta.....

....Y esperemos pronto las demassssssss..........

Graciaaaaaassss................chau..
 
Última edición:
Entro y me topo con esto :OHHH:

Desc_g_


Gracias, muchas gracias, espero las demas xD


Saludos :D
 
Hellsing ova 2

Ahhh! mira lo que me encontre mujer policia entro al CLUB y la ova 2 de hellsing
con los hermanos valentine, Excelente que digo Excelente fantastico.jajaja! :sprloc:dance3

1000 GRACIAS MI HERMANO!!!:aplausos: :dplgar:

COMO SIEMPRE " THE BETTER"!:LXR: :dplgar:

PD: Solo por eso te prestare esta noche a Seras Victoria.Mlevol0

SALUDOS MAN!!!
 
Volver