Hellsing Ultimate Ova 4 (2008) 1080p Bluray Dual Japonés-Inglés [Subt. Esp-Ing] (Anime. Animación)

Max

Admin
Miembro del Staff
Administrador
Registro
8 Ago 2012
Mensajes
5.586
Reacciones
23.743
Puntos
113
Ubicación
Disco C

Reputation:





TÍTULO ORIGINAL: Hellsing Ultimate (Hellsing Ultimate OVA series) (AKA Hellsing Ultimate's OVAs)
OTROS TÍTULOS: Hellsing Ultimate Ova 4
AÑO: 2008
DURACIÓN: 56 min.
PAÍS: Japón
DIRECTOR: Tomokazu Tokoro, Hiroyuki Tanaka
GUIÓN: Hideyuki Kurata, Yosuke Kuroda
MÚSICA: Hayato Matsuo
FOTOGRAFÍA: Animation
REPARTO: Animation
PRODUCTORA: Statelight / Madhouse / Graphinica Inc / Kelmadick
GÉNERO: Anime. Animación. Fantástico. Acción. Terror | Vampiros. Miniserie de TV. Manga

http://www.imdb.com/title/tt1564642/






Mientras Hellsing e Iscariote mantienen una reunión con la Reina del Reino Unido, su conferencia es interrumpida por un mensaje de El Mayor (via una transmisión de video en vivo traído por la omnipresente Schrödinger), declarando su intención de ir a la guerra con Inglaterra. Mientras tanto, un portaaviones VTOL Británico llamado El Águila es secuestrado por la primer teniente Rip Van Winkle y un pequeño escuadrón de soldados de las SS de Millennium, Integra envía a Alucard para aniquilar a los perpetradores y Rip Van Winkle.











































Código:
General
Complete name                    : Hellsing Ultimate Ova 4 (2008) 1080p Bluray Dual Japonés-Inglés [Subt. Esp-Ing].mkv
Format                           : Matroska
Format version                   : Version 2
File size                        : 4.68 GiB
Duration                         : 56mn 19s
Overall bit rate mode            : Variable
Overall bit rate                 : 11.9 Mbps
Movie name                       : www.club-hd.com --> Hellsing Ultimate Ova 4 (2008) 1080p Bluray Dual Japonés-Inglés [Subt. Esp-Ing]
Encoded date                     : UTC 2012-11-10 10:39:54
Writing application              : mkvmerge v5.8.0 ('No Sleep / Pillow') built on Sep  2 2012 15:37:04
Writing library                  : libebml v1.2.3 + libmatroska v1.3.0
Attachment                       : Yes

Video
ID                               : 1
Format                           : AVC
Format/Info                      : Advanced Video Codec
Format profile                   : High@L4.1
Format settings, CABAC           : Yes
Format settings, ReFrames        : 4 frames
Codec ID                         : V_MPEG4/ISO/AVC
Duration                         : 56mn 19s
Width                            : 1 920 pixels
Height                           : 1 080 pixels
Display aspect ratio             : 16:9
Frame rate mode                  : Variable
Frame rate                       : 23.810 fps
Color space                      : YUV
Chroma subsampling               : 4:2:0
Bit depth                        : 8 bits
Scan type                        : Progressive
Title                            : www.club-hd.com --> Hellsing Ultimate Ova 4 (2008) 1080p Bluray Dual Japonés-Inglés [Subt. Esp-Ing]
Language                         : Japanese
Default                          : Yes
Forced                           : No

Audio #1
ID                               : 2
Format                           : AC-3
Format/Info                      : Audio Coding 3
Mode extension                   : CM (complete main)
Codec ID                         : A_AC3
Duration                         : 56mn 19s
Bit rate mode                    : Constant
Bit rate                         : 640 Kbps
Channel(s)                       : 6 channels
Channel positions                : Front: L C R, Side: L R, LFE
Sampling rate                    : 48.0 KHz
Bit depth                        : 16 bits
Compression mode                 : Lossy
Stream size                      : 258 MiB (5%)
Title                            : Hellsing Ultimate Ova 4 (2008) - Japonés AC3 5.1
Language                         : Japanese
Default                          : Yes
Forced                           : No

Audio #2
ID                               : 3
Format                           : AC-3
Format/Info                      : Audio Coding 3
Mode extension                   : CM (complete main)
Codec ID                         : A_AC3
Duration                         : 56mn 19s
Bit rate mode                    : Constant
Bit rate                         : 640 Kbps
Channel(s)                       : 6 channels
Channel positions                : Front: L C R, Side: L R, LFE
Sampling rate                    : 48.0 KHz
Bit depth                        : 16 bits
Compression mode                 : Lossy
Stream size                      : 258 MiB (5%)
Title                            : Hellsing Ultimate Ova 4 (2008) - Inglés AC3 5.1
Language                         : English
Default                          : No
Forced                           : No

Audio #3
ID                               : 4
Format                           : FLAC
Format/Info                      : Free Lossless Audio Codec
Codec ID                         : A_FLAC
Duration                         : 56mn 19s
Bit rate mode                    : Variable
Channel(s)                       : 6 channels
Channel positions                : Front: L C R, Back: L R, LFE
Sampling rate                    : 48.0 KHz
Bit depth                        : 24 bits
Title                            : Hellsing Ultimate Ova 4 (2008) - (Japanese Blu-ray Audio) Japonés FLAC 5.1
Writing library                  : libFLAC 1.2.1 (UTC 2007-09-17)
Language                         : Japanese
Default                          : No
Forced                           : No

Audio #4
ID                               : 5
Format                           : DTS
Format/Info                      : Digital Theater Systems
Codec ID                         : A_DTS
Duration                         : 56mn 19s
Bit rate mode                    : Constant
Bit rate                         : 1 510 Kbps
Channel(s)                       : 6 channels
Channel positions                : Front: L C R, Side: L R, LFE
Sampling rate                    : 48.0 KHz
Bit depth                        : 16 bits
Compression mode                 : Lossy
Stream size                      : 608 MiB (13%)
Title                            : Hellsing Ultimate Ova 4 (2008) - Inglés DTS 5.1
Language                         : English
Default                          : No
Forced                           : No

Text #1
ID                               : 6
Format                           : UTF-8
Codec ID                         : S_TEXT/UTF8
Codec ID/Info                    : UTF-8 Plain Text
Title                            : Subtítulos Español
Language                         : Spanish
Default                          : Yes
Forced                           : No

Text #2
ID                               : 7
Format                           : UTF-8
Codec ID                         : S_TEXT/UTF8
Codec ID/Info                    : UTF-8 Plain Text
Title                            : Subtítulos Inglés
Language                         : English
Default                          : No
Forced                           : No




Más información sobre Hellsing. Aquí!









Enlaces de Mega y Fireload solo disponibles para Miembros VIP

Compra tu Membresía VIP y apoya a Club-HD!

ATENCIÓN! Tenemos TODO el material de Club-HD disponible por Mega y Fireload, enlaces 100% activos y online hasta la fecha

Llévate tus cuentas Mega PRO II gratis con tu membresía VIP!
Todos los posts vivos con links de Mega y Fireload.
Todo el material de Club-HD desbloqueado y sin publicidad.

Click Aquí para más información.




Enlaces de Mega y Fireload solo disponibles para Miembros VIP

Compra tu Membresía VIP y apoya a Club-HD!

ATENCIÓN! Tenemos TODO el material de Club-HD disponible por Mega y Fireload, enlaces 100% activos y online hasta la fecha

Llévate tus cuentas Mega PRO II gratis con tu membresía VIP!
Todos los posts vivos con links de Mega y Fireload.
Todo el material de Club-HD desbloqueado y sin publicidad.

Click Aquí para más información.



Para ver este contenido oculto, debes dar click en una de las siguientes reacciones : Like Like, Love Love, Haha Haha, Wow Wow, Sad Sad, Angry Angry


Para ver este contenido oculto, debes dar click en una de las siguientes reacciones : Like Like, Love Love, Haha Haha, Wow Wow, Sad Sad, Angry Angry
 
Última edición por un moderador:

trailblazer 2.0

Well-known member
Miembro del Staff
Súper Moderador
Registro
28 Ago 2012
Mensajes
2.787
Reacciones
1.120
Puntos
113
Ubicación
Ciudad Macross

Reputation:

perfecto Maxter 4 ovas seguro los seguidores de estas ovas va a estar emocionados
 

angumon30

Active member
Registro
27 Ago 2012
Mensajes
1.093
Reacciones
15
Puntos
38
Edad
41

Reputation:

muchas gracias como simpre..... excelente serie
 

Joker

Well-known member
Miembro del Staff
Súper Moderador
Registro
27 Ago 2012
Mensajes
1.349
Reacciones
3.762
Puntos
113
Ubicación
Arkham Asylum

Reputation:

Desc_g_

Wow Max!!! Ya la 4°, que bueno que ya esta avanzando este proyecto, mis respetos Max, excelente aporte :p

Muchisimas gracias, en serio gracias!!!

Saludos :D
 

VILLE77

Active member
Registro
28 Ago 2012
Mensajes
369
Reacciones
34
Puntos
28
Edad
44
Ubicación
Rio Grande, Puerto Rico

Reputation:

Desc_g_


Wepa la OVA 4...! Directo para el principio de la lista muchas gracias por continuar la serie. Cuando las tenga todas entonces las veo.
 

0irukalive

Well-known member
Registro
29 Oct 2012
Mensajes
1.039
Reacciones
35
Puntos
48
Edad
31

Reputation:

oh oh oh en 1080p?? excelente :D perfecto diria yo, muchas gracias!
 

Nosferatu

Well-known member
Súper Moderador
Registro
31 Ago 2012
Mensajes
2.275
Reacciones
1.362
Puntos
113
Edad
44
Ubicación
Welcome to Hell!!

Reputation:

Simplemente MAX! sos un ASTRO CELESTE! a ya arriba en lo mas alto, no hay otro lugar para ti mi hermano.:aplausos::aplausos:
Ova 4 de Hellsing. :sprloc:Hurr4hdance3

SALUDOS MAXIMO! :aplausos::LXR::LXR:
 

Usuarios Que Están Viendo Este Tema (Total: 1, Miembros: 0, Invitados: 1)

Arriba