Hellsing Ultimate Ova 6 (2009) 1080p BDRip Dual Japonés-Inglés [Subt. Esp-Ing] (Anime. Animación)

Max

Admin
Miembro del Staff
Administrador
Registro
8 Ago 2012
Mensajes
5.593
Reacciones
23.794
Puntos
113
Ubicación
Disco C

Reputation:







TÍTULO ORIGINAL: Hellsing Ultimate (Hellsing Ultimate OVA series) (AKA Hellsing Ultimate's OVAs)
OTROS TÍTULOS: Hellsing Ultimate Ova 6
AÑO: 2009
DURACIÓN: 42 min.
PAÍS: Japón
DIRECTOR: Tomokazu Tokoro, Hiroyuki Tanaka
GUIÓN: Hideyuki Kurata, Yosuke Kuroda
MÚSICA: Hayato Matsuo
FOTOGRAFÍA: Animation
REPARTO: Animation
PRODUCTORA: Statelight / Madhouse / Graphinica Inc / Kelmadick
GÉNERO: Anime. Animación. Fantástico. Acción. Terror | Vampiros. Miniserie de TV. Manga

http://www.imdb.com/title/tt1618614/






A medida que la batalla comienza, el Vaticano Enrico Maxwell, jefe de la Sección XIII de Iscariote se le da una mayor promoción, y con ella él comienza a movilizar a los combatientes del Vaticano. Mientras tanto, en el corazón de Londres, mientras que Integra se encuentra ocupada convenciendo a los miembros de Iscariote que la escolten a su hogar, la mansión Hellsing es sitiada por Zorin Blitz y sus fuerzas. La única línea de defensa contra este ataque es el capitán Bernadotte, su Wild Geese, y Seras. A medida que la batalla continua, ellos deben hacer frente no sólo a la fuerzas de los vampiros nazis, sino también a los misteriosos poderes de Zorin Blitz...























































Código:
General
Complete name                            : Hellsing Ultimate Ova 6 (2009) 1080p BDRip Dual Japonés-Inglés [Subt. Esp-Ing].mkv
Format                                   : Matroska
Format version                           : Version 4 / Version 2
File size                                : 3.93 GiB
Duration                                 : 42mn 39s
Overall bit rate mode                    : Variable
Overall bit rate                         : 13.2 Mbps
Movie name                               : www.club-hd.com --> Hellsing Ultimate Ova 6 (2009) 1080p BDRip Dual Japonés-Inglés [Subt. Esp-Ing]
Encoded date                             : UTC 2013-01-31 22:13:24
Writing application                      : mkvmerge v6.0.0 ('Coming Up For Air') built on Jan 20 2013 09:52:00
Writing library                          : libebml v1.3.0 + libmatroska v1.4.0

Video
ID                                       : 1
Format                                   : AVC
Format/Info                              : Advanced Video Codec
Format profile                           : High@L4.1
Format settings, CABAC                   : Yes
Format settings, ReFrames                : 3 frames
Codec ID                                 : V_MPEG4/ISO/AVC
Duration                                 : 42mn 39s
Nominal bit rate                         : 5 000 Kbps
Width                                    : 1 920 pixels
Height                                   : 1 080 pixels
Display aspect ratio                     : 16:9
Frame rate mode                          : Constant
Frame rate                               : 23.976 fps
Color space                              : YUV
Chroma subsampling                       : 4:2:0
Bit depth                                : 8 bits
Scan type                                : Progressive
Bits/(Pixel*Frame)                       : 0.101
Title                                    : www.club-hd.com --> Hellsing Ultimate Ova 6 (2009) 1080p BDRip Dual Japonés-Inglés [Subt. Esp-Ing]
Writing library                          : x264 core 129 r2230 1cffe9f
Encoding settings                        : cabac=1 / ref=4 / deblock=1:-1:-1 / analyse=0x3:0x133 / me=umh / subme=10 / psy=1 / psy_rd=1.00:0.15 / mixed_ref=1 / me_range=24 / chroma_me=1 / trellis=2 / 8x8dct=1 / cqm=0 / deadzone=21,11 / fast_pskip=1 / chroma_qp_offset=-3 / threads=12 / lookahead_threads=2 / sliced_threads=0 / nr=0 / decimate=1 / interlaced=0 / bluray_compat=0 / constrained_intra=0 / bframes=3 / b_pyramid=1 / b_adapt=1 / b_bias=0 / direct=1 / weightb=1 / open_gop=0 / weightp=2 / keyint=240 / keyint_min=23 / scenecut=40 / intra_refresh=0 / rc_lookahead=50 / rc=2pass / mbtree=1 / bitrate=5000 / ratetol=1.0 / qcomp=0.60 / qpmin=0 / qpmax=69 / qpstep=4 / cplxblur=20.0 / qblur=0.5 / ip_ratio=1.40 / aq=1:1.00
Language                                 : Japanese
Default                                  : Yes
Forced                                   : No

Audio #1
ID                                       : 2
Format                                   : AC-3
Format/Info                              : Audio Coding 3
Mode extension                           : CM (complete main)
Format settings, Endianness              : Big
Codec ID                                 : A_AC3
Duration                                 : 42mn 39s
Bit rate mode                            : Constant
Bit rate                                 : 640 Kbps
Channel(s)                               : 6 channels
Channel positions                        : Front: L C R, Side: L R, LFE
Sampling rate                            : 48.0 KHz
Bit depth                                : 16 bits
Compression mode                         : Lossy
Stream size                              : 195 MiB (5%)
Title                                    : Hellsing Ultimate Ova 6 (2009) - Japonés AC3 5.1
Language                                 : Japanese
Default                                  : Yes
Forced                                   : No

Audio #2
ID                                       : 3
Format                                   : AC-3
Format/Info                              : Audio Coding 3
Mode extension                           : CM (complete main)
Format settings, Endianness              : Big
Codec ID                                 : A_AC3
Duration                                 : 42mn 39s
Bit rate mode                            : Constant
Bit rate                                 : 640 Kbps
Channel(s)                               : 6 channels
Channel positions                        : Front: L C R, Side: L R, LFE
Sampling rate                            : 48.0 KHz
Bit depth                                : 16 bits
Compression mode                         : Lossy
Stream size                              : 195 MiB (5%)
Title                                    : Hellsing Ultimate Ova 6 (2009) - Inglés AC3 5.1
Language                                 : English
Default                                  : No
Forced                                   : No

Audio #3
ID                                       : 4
Format                                   : FLAC
Format/Info                              : Free Lossless Audio Codec
Codec ID                                 : A_FLAC
Duration                                 : 42mn 39s
Bit rate mode                            : Variable
Channel(s)                               : 6 channels
Sampling rate                            : 48.0 KHz
Bit depth                                : 24 bits
Title                                    : Hellsing Ultimate Ova 6 (2009) - Japonés FLAC 5.1
Writing library                          : libFLAC 1.2.1 (UTC 2007-09-17)
Language                                 : Japanese
Default                                  : No
Forced                                   : No

Audio #4
ID                                       : 5
Format                                   : FLAC
Format/Info                              : Free Lossless Audio Codec
Codec ID                                 : A_FLAC
Duration                                 : 42mn 39s
Bit rate mode                            : Variable
Channel(s)                               : 6 channels
Sampling rate                            : 48.0 KHz
Bit depth                                : 24 bits
Title                                    : Hellsing Ultimate Ova 6 (2009) - Inglés FLAC 5.1
Writing library                          : libFLAC 1.2.1 (UTC 2007-09-17)
Language                                 : English
Default                                  : No
Forced                                   : No

Audio #5
ID                                       : 8
Format                                   : AC-3
Format/Info                              : Audio Coding 3
Mode extension                           : CM (complete main)
Format settings, Endianness              : Big
Codec ID                                 : A_AC3
Duration                                 : 42mn 39s
Bit rate mode                            : Constant
Bit rate                                 : 256 Kbps
Channel(s)                               : 2 channels
Channel positions                        : Front: L R
Sampling rate                            : 48.0 KHz
Bit depth                                : 16 bits
Compression mode                         : Lossy
Stream size                              : 78.1 MiB (2%)
Title                                    : Comentarios
Language                                 : English
Default                                  : No
Forced                                   : No

Text #1
ID                                       : 6
Format                                   : UTF-8
Codec ID                                 : S_TEXT/UTF8
Codec ID/Info                            : UTF-8 Plain Text
Title                                    : Subtítulos Español
Language                                 : Spanish
Default                                  : Yes
Forced                                   : No

Text #2
ID                                       : 7
Format                                   : UTF-8
Codec ID                                 : S_TEXT/UTF8
Codec ID/Info                            : UTF-8 Plain Text
Title                                    : Subtítulos Inglés
Language                                 : English
Default                                  : No
Forced                                   : No

Menu
00:00:00.000                             : :Intro
00:07:59.000                             : :Part A
00:21:38.000                             : :Part B
00:38:20.000                             : :ED
00:41:18.000                             : :Part C




Nota: Esta versión de Hellsing Ultimate Ova 6 viene con una pequeña escena al final que no se ve en los ripeos de la versión Japonesa que circula por internet, además los subtítulos en Español están perfectamente corregidos por este servidor, ya que a los subs que se encuentran en internet están algo incompletos y con faltas de ortografia. A disfrutar amigos! i-m_so_happy




Más información sobre Hellsing. Aquí!








Enlaces de Mega y Fireload solo disponibles para Miembros VIP

Compra tu Membresía VIP y apoya a Club-HD!

ATENCIÓN! Tenemos TODO el material de Club-HD disponible por Mega y Fireload, enlaces 100% activos y online hasta la fecha

Llévate tus cuentas Mega PRO II gratis con tu membresía VIP!
Todos los posts vivos con links de Mega y Fireload.
Todo el material de Club-HD desbloqueado y sin publicidad.

Click Aquí para más información.



Enlaces de Mega y Fireload solo disponibles para Miembros VIP

Compra tu Membresía VIP y apoya a Club-HD!

ATENCIÓN! Tenemos TODO el material de Club-HD disponible por Mega y Fireload, enlaces 100% activos y online hasta la fecha

Llévate tus cuentas Mega PRO II gratis con tu membresía VIP!
Todos los posts vivos con links de Mega y Fireload.
Todo el material de Club-HD desbloqueado y sin publicidad.

Click Aquí para más información.



Para ver este contenido oculto, debes dar click en una de las siguientes reacciones : Like Like, Love Love, Haha Haha, Wow Wow, Sad Sad, Angry Angry


Para ver este contenido oculto, debes dar click en una de las siguientes reacciones : Like Like, Love Love, Haha Haha, Wow Wow, Sad Sad, Angry Angry
 
Última edición:

Joker

Well-known member
Miembro del Staff
Súper Moderador
Registro
27 Ago 2012
Mensajes
1.349
Reacciones
3.765
Puntos
113
Ubicación
Arkham Asylum

Reputation:

Desc_g_

Por eso eres grande Max!!!
aportazo los Ovas de Hellsing!!! Vale la pena cada segundo de espera!!!

Excelente, grandes como siempre!!! :aplausos:

Saludos :D
 

Claudia

New member
Súper Moderador
Registro
28 Ago 2012
Mensajes
2.288
Reacciones
2.928
Puntos
0
Edad
48
Ubicación
EN MI MUNDO REAL...

Reputation:

MI QUERIDO MAX, SIEMPRE SUPERAS MIS EXPECTATIVAS GRACIAS INFINITAS, GENIO:dplgar:
 

joselofigo

New member
Registro
28 Ago 2012
Mensajes
30
Reacciones
3
Puntos
0
Edad
33

Reputation:

bajaannnndoo muchas gracias ojala resuban las otras ovas tambien.
 

Usuarios Que Están Viendo Este Tema (Total: 1, Miembros: 0, Invitados: 1)

Arriba