Hellsing Ultimate Ova 7 (2009) 1080p BDRip Dual Japonés-Inglés [Subt. Esp-Ing] (Anime. Animación)

Max

Admin
Miembro del Staff
Administrador
Miembro VIP
Registro
8 Ago 2012
Mensajes
6.034
Ubicación
Disco C




TÍTULO ORIGINAL: Hellsing Ultimate (Hellsing Ultimate OVA series) (AKA Hellsing Ultimate's OVAs)
OTROS TÍTULOS: Hellsing Ultimate Ova 7
AÑO: 2009
DURACIÓN: 46 min.
PAÍS: Japón
DIRECTOR: Tomokazu Tokoro, Hiroyuki Tanaka
GUIÓN: Hideyuki Kurata, Yosuke Kuroda
MÚSICA: Hayato Matsuo
FOTOGRAFÍA: Animation
REPARTO: Animation
PRODUCTORA: Statelight / Madhouse / Graphinica Inc / Kelmadick
GÉNERO: Anime. Animación. Fantástico. Acción. Terror | Vampiros. Miniserie de TV. Manga

http://www.imdb.com/title/tt1618615/






El Major envía a Zorin y sus tropas a destruir la Sede Hellsing. Seras y Pip, Capitán de los Wild Geese, luchan por Gran Bretaña y sus vidas.











































Código:
General
Complete name                            : Hellsing Ultimate Ova 7 (2009) 1080p BDRip Dual Japonés-Inglés [Subt. Esp-Ing].mkv
Format                                   : Matroska
Format version                           : Version 2
File size                                : 4.24 GiB
Duration                                 : 46mn 33s
Overall bit rate mode                    : Variable
Overall bit rate                         : 13.0 Mbps
Movie name                               : www.club-hd.com --> Hellsing Ultimate Ova 7 (2009) 1080p BDRip Dual Japonés-Inglés [Subt. Esp-Ing]
Encoded date                             : UTC 2013-06-01 00:01:52
Writing application                      : mkvmerge v5.8.0 ('No Sleep / Pillow') built on Sep  2 2012 15:37:04
Writing library                          : libebml v1.2.3 + libmatroska v1.3.0

Video
ID                                       : 1
Format                                   : AVC
Format/Info                              : Advanced Video Codec
Format profile                           : High@L4.1
Format settings, CABAC                   : Yes
Format settings, ReFrames                : 3 frames
Codec ID                                 : V_MPEG4/ISO/AVC
Duration                                 : 46mn 33s
Nominal bit rate                         : 5 000 Kbps
Width                                    : 1 920 pixels
Height                                   : 1 080 pixels
Display aspect ratio                     : 16:9
Frame rate mode                          : Constant
Frame rate                               : 23.976 fps
Color space                              : YUV
Chroma subsampling                       : 4:2:0
Bit depth                                : 8 bits
Scan type                                : Progressive
Bits/(Pixel*Frame)                       : 0.101
Title                                    : www.club-hd.com --> Hellsing Ultimate Ova 7 (2009) 1080p BDRip Dual Japonés-Inglés [Subt. Esp-Ing]
Writing library                          : x264 core 130 r2273 b3065e6
Encoding settings                        : cabac=1 / ref=4 / deblock=1:-1:-1 / analyse=0x3:0x133 / me=umh / subme=10 / psy=1 / psy_rd=1.00:0.15 / mixed_ref=1 / me_range=24 / chroma_me=1 / trellis=2 / 8x8dct=1 / cqm=0 / deadzone=21,11 / fast_pskip=1 / chroma_qp_offset=-3 / threads=12 / lookahead_threads=1 / sliced_threads=0 / nr=0 / decimate=1 / interlaced=0 / bluray_compat=0 / constrained_intra=0 / bframes=3 / b_pyramid=1 / b_adapt=1 / b_bias=0 / direct=1 / weightb=1 / open_gop=0 / weightp=2 / keyint=240 / keyint_min=23 / scenecut=40 / intra_refresh=0 / rc_lookahead=50 / rc=2pass / mbtree=1 / bitrate=5000 / ratetol=1.0 / qcomp=0.60 / qpmin=0 / qpmax=69 / qpstep=4 / cplxblur=20.0 / qblur=0.5 / ip_ratio=1.40 / aq=1:1.00
Language                                 : Japanese
Default                                  : Yes
Forced                                   : No

Audio #1
ID                                       : 2
Format                                   : AC-3
Format/Info                              : Audio Coding 3
Mode extension                           : CM (complete main)
Format settings, Endianness              : Big
Codec ID                                 : A_AC3
Duration                                 : 46mn 33s
Bit rate mode                            : Constant
Bit rate                                 : 640 Kbps
Channel(s)                               : 6 channels
Channel positions                        : Front: L C R, Side: L R, LFE
Sampling rate                            : 48.0 KHz
Bit depth                                : 16 bits
Compression mode                         : Lossy
Stream size                              : 213 MiB (5%)
Title                                    : Hellsing Ultimate Ova 7 (2009) - Japonés AC3 5.1
Language                                 : Japanese
Default                                  : Yes
Forced                                   : No

Audio #2
ID                                       : 3
Format                                   : AC-3
Format/Info                              : Audio Coding 3
Mode extension                           : CM (complete main)
Format settings, Endianness              : Big
Codec ID                                 : A_AC3
Duration                                 : 46mn 33s
Bit rate mode                            : Constant
Bit rate                                 : 640 Kbps
Channel(s)                               : 6 channels
Channel positions                        : Front: L C R, Side: L R, LFE
Sampling rate                            : 48.0 KHz
Bit depth                                : 16 bits
Compression mode                         : Lossy
Stream size                              : 213 MiB (5%)
Title                                    : Hellsing Ultimate Ova 7 (2009) - Inglés AC3 5.1
Language                                 : English
Default                                  : No
Forced                                   : No

Audio #3
ID                                       : 4
Format                                   : FLAC
Format/Info                              : Free Lossless Audio Codec
Codec ID                                 : A_FLAC
Duration                                 : 46mn 33s
Bit rate mode                            : Variable
Channel(s)                               : 6 channels
Sampling rate                            : 48.0 KHz
Bit depth                                : 24 bits
Title                                    : Hellsing Ultimate Ova 7 (2009) - Japonés FLAC 5.1
Writing library                          : libFLAC 1.2.1 (UTC 2007-09-17)
Language                                 : Japanese
Default                                  : No
Forced                                   : No

Audio #4
ID                                       : 5
Format                                   : FLAC
Format/Info                              : Free Lossless Audio Codec
Codec ID                                 : A_FLAC
Duration                                 : 46mn 33s
Bit rate mode                            : Variable
Channel(s)                               : 6 channels
Sampling rate                            : 48.0 KHz
Bit depth                                : 24 bits
Title                                    : Hellsing Ultimate Ova 7 (2009) - Inglés FLAC 5.1
Writing library                          : libFLAC 1.2.1 (UTC 2007-09-17)
Language                                 : English
Default                                  : No
Forced                                   : No

Audio #5
ID                                       : 6
Format                                   : AC-3
Format/Info                              : Audio Coding 3
Mode extension                           : CM (complete main)
Format settings, Endianness              : Big
Codec ID                                 : A_AC3
Duration                                 : 46mn 33s
Bit rate mode                            : Constant
Bit rate                                 : 256 Kbps
Channel(s)                               : 2 channels
Channel positions                        : Front: L R
Sampling rate                            : 48.0 KHz
Bit depth                                : 16 bits
Compression mode                         : Lossy
Stream size                              : 85.3 MiB (2%)
Title                                    : Comentarios
Language                                 : English
Default                                  : No
Forced                                   : No

Text #1
ID                                       : 7
Format                                   : UTF-8
Codec ID                                 : S_TEXT/UTF8
Codec ID/Info                            : UTF-8 Plain Text
Title                                    : Hellsing Ultimate Ova 7 (2009) - Subtítulos Español
Language                                 : Spanish
Default                                  : Yes
Forced                                   : No

Text #2
ID                                       : 8
Format                                   : UTF-8
Codec ID                                 : S_TEXT/UTF8
Codec ID/Info                            : UTF-8 Plain Text
Title                                    : Hellsing Ultimate Ova 7 (2009) - Subtítulos Inglés
Language                                 : English
Default                                  : No
Forced                                   : No

Menu
00:00:00.000                             : :Intro
00:03:18.000                             : :Part A
00:17:24.000                             : :Part B
00:38:23.000                             : :ED
00:42:52.000                             : :Part C




Más información sobre Hellsing. Aquí!




Extra Especial 1 >> Ishii Yasushi - Hellsing Original Soundtrack - RAID (OST 1 - 2003)

DESCARGAR: Hellsing Original Soundtrack - RAID desde Uploaded
DESCARGAR: Hellsing Original Soundtrack - RAID desde Letitbit



Extra Especial 2 >> Ishii Yasushi - Hellsing Original Soundtrack - RUINS (OST 2 - 2003)

DESCARGAR: Hellsing Original Soundtrack - RUINS desde Uploaded
DESCARGAR: Hellsing Original Soundtrack - RUINS desde Letitbit



Extra Especial 3 >> Hellsing OVA Original Soundtrack - BLACK DOG (2008) >> Muy pronto...!








Enlaces de Mega y Google Drive solo disponibles para Miembros VIP

Compra tu Membresía VIP y apoya a Club-HD!

ATENCIÓN! Tenemos TODO el material de Club-HD disponible por Mega y Google Drive, enlaces 100% activos y online hasta la fecha

Llévate tus cuentas Mega PRO III gratis con tu membresía VIP!
Todos los posts vivos con links de Mega y Google Drive.
Todo el material de Club-HD desbloqueado y sin publicidad.

Click Aquí para más información.



Para ver este contenido oculto, debes dar click en una de las siguientes reacciones : Like Like, Love Love, Haha Haha, Wow Wow, Sad Sad, Angry Angry
 
Última edición:

Mate78

Ladron de mi cerebro
Miembro del Staff
Súper Moderador
Miembro VIP
Registro
27 Ago 2012
Mensajes
1.244
:aplausos:Felicitaciones y bienvenido MAX , esperemos ver muchisimos mas aportes de usted !!!!!!:aplausos:
 

Omar Herrera

Well-known member
Miembro del Staff
Súper Moderador
Miembro VIP
Registro
27 Ago 2012
Mensajes
1.236
Edad
33
Ubicación
Managua
Y el Mestro vuelve a las andanzas, y regresa con nada menos que la Ova VII de Hellsing! Grande Max!! GRANDE!! :aplausos:
Desc_g_
 

DoomsDay Elite

Well-known member
Registro
5 Sep 2012
Mensajes
1.222
ya nos hacías falta max, ya me estoy quedando sin espacio al poner al corriente con todos los aportes tendré que comprar disco nuevo y de mas espacio
 

Usuarios Que Están Viendo Este Tema (Total: 1, Miembros: 0, Invitados: 1)

Quién Leyó Este Tema (Total Miembros: 2)

Arriba