Hemingway & Gellhorn (2012) m-720p Dual Latino-Inglés [Subt. Esp] (Drama. Romance)

Maestro Revolver

Administrador
Registro
9 Ago 2012
Mensajes
3.157
Reacciones (ptje)
54.925


Hemingway-&-Gellhorn.jpg




FichaTecnica.jpg


TÍTULO ORIGINAL: Hemingway & Gellhorn (TV)
AÑO: 2012
DURACIÓN: 154 min.
PAÍS: USA
DIRECTOR: Philip Kaufman
GUIÓN: Jerry Stahl, Barbara Turner
REPARTO: Nicole Kidman, Clive Owen, Robert Duvall, Parker Posey, Connie Nielsen, Tony Shalhoub, Rodrigo Santoro, Mark Pellegrino, David Strathairn, Peter Coyote, Jeffrey Jones, Molly Parker, Santiago Cabrera, Brooke Adams
PRODUCTORA: Attaboy Films / Home Box Office (HBO)
GÉNERO: Drama. Romance | Biográfico. Telefilm
imdb-logo.png
: http://www.imdb.com/title/tt0423455/

PREMIOS: 2012: Festival de Cannes: Sección oficial de largometrajes (fuera de competición)
2012: Globos de Oro: Nominada a Mejor actor y mejor actriz en miniserie de TV
2012: Emmy: 5 nominaciones, incluyendo mejor miniserie, actor (Owen) y actriz (Kidman)




Sinopsis.jpg


Película biográfica sobre Ernest Hemingway que se centra en los años de su matrimonio con Martha Gellhorn.




Trailer.jpg






Capturas.jpg


1.jpg


2.jpg


3.jpg


4.jpg


5.jpg


6.jpg


La pelicula NO tiene ninguna marca... solo colocamos el nombre de esta web en las capturas




MediaInfo.jpg


Código:
General
Format                                   : Matroska
Format version                           : Version 2
File size                                : 4.49 GiB
Duration                                 : 2h 34mn
Overall bit rate                         : 4 156 Kbps
Movie name                               : www.club-hd.com
Encoded date                             : UTC 2013-03-30 20:33:34
Writing application                      : mkvmerge v5.7.0 ('The Whirlwind') built on Jul  8 2012 20:08:51
Writing library                          : libebml v1.2.3 + libmatroska v1.3.0

Video
ID                                       : 1
Format                                   : AVC
Format/Info                              : Advanced Video Codec
Format profile                           : [email protected]
Format settings, CABAC                   : Yes
Format settings, ReFrames                : 9 frames
Codec ID                                 : V_MPEG4/ISO/AVC
Duration                                 : 2h 34mn
Bit rate                                 : 2 875 Kbps
Width                                    : 1 280 pixels
Height                                   : 720 pixels
Display aspect ratio                     : 16:9
Frame rate mode                          : Constant
Frame rate                               : 23.976 fps
Color space                              : YUV
Chroma subsampling                       : 4:2:0
Bit depth                                : 8 bits
Scan type                                : Progressive
Bits/(Pixel*Frame)                       : 0.130
Stream size                              : 3.02 GiB (67%)
Title                                    : www.club-hd.com
Writing library                          : x264 core 130 r2273 b3065e6
Language                                 : English
Default                                  : Yes
Forced                                   : No

Audio #1
ID                                       : 2
Format                                   : AC-3
Format/Info                              : Audio Coding 3
Mode extension                           : CM (complete main)
Format settings, Endianness              : Big
Codec ID                                 : A_AC3
Duration                                 : 2h 34mn
Bit rate mode                            : Constant
Bit rate                                 : 640 Kbps
Channel(s)                               : 2 channels
Channel positions                        : Front: L R
Sampling rate                            : 48.0 KHz
Bit depth                                : 16 bits
Compression mode                         : Lossy
Stream size                              : 709 MiB (15%)
Title                                    : www.club-hd.com  >>  Latino
Language                                 : Spanish
Default                                  : Yes
Forced                                   : No

Audio #2
ID                                       : 3
Format                                   : AC-3
Format/Info                              : Audio Coding 3
Mode extension                           : CM (complete main)
Format settings, Endianness              : Big
Codec ID                                 : A_AC3
Duration                                 : 2h 34mn
Bit rate mode                            : Constant
Bit rate                                 : 640 Kbps
Channel(s)                               : 6 channels
Channel positions                        : Front: L C R, Side: L R, LFE
Sampling rate                            : 48.0 KHz
Bit depth                                : 16 bits
Compression mode                         : Lossy
Stream size                              : 709 MiB (15%)
Title                                    : www.club-hd.com  >>  Inglés
Language                                 : English
Default                                  : No
Forced                                   : No

Text
ID                                       : 4
Format                                   : UTF-8
Codec ID                                 : S_TEXT/UTF8
Codec ID/Info                            : UTF-8 Plain Text
Language                                 : Spanish
Default                                  : No
Forced                                   : No

Menu
00:00:00.000                             : en:Chapter 1
00:08:09.781                             : en:Chapter 2
00:15:53.786                             : en:Chapter 3
00:27:41.451                             : en:Chapter 4
00:38:56.709                             : en:Chapter 5
00:48:38.374                             : en:Chapter 6
00:56:48.989                             : en:Chapter 7
01:10:31.310                             : en:Chapter 8
01:23:48.815                             : en:Chapter 9
01:31:35.824                             : en:Chapter 10
01:41:07.603                             : en:Chapter 11
01:49:47.122                             : en:Chapter 12
02:04:16.908                             : en:Chapter 13
02:11:19.747                             : en:Chapter 14
02:16:54.581                             : en:Chapter 15
02:25:49.866                             : en:Chapter 16
02:30:46.037                             : en:Chapter 17




Descarga.jpg





google-drive-vip.png


Tenemos TODO el material de Club-HD disponible por Mega, enlaces 100% activos y online hasta la fecha

Llévate tus cuentas Mega PRO III gratis con tu membresía VIP!
Todos los posts vivos con links de Mega.
Todo el material de Club-HD desbloqueado y sin publicidad.

Obtén más información sobre nuestras Membresías VIP

MEGA.jpg

Tenemos TODO el material de Club-HD disponible por Mega, enlaces 100% activos y online hasta la fecha

Llévate tus cuentas Mega PRO III gratis con tu membresía VIP!
Todos los posts vivos con links de Mega.
Todo el material de Club-HD desbloqueado y sin publicidad.

Obtén más información sobre nuestras Membresías VIP



UPLOADED_BANNER.png

Para ver este contenido oculto, debes dar click en el botón"Like", o cualquiera de las otras reacciones:

Me Gusta Me Gusta, Me Encanta Me Encanta, Jaja Jaja, Wow Wow, Triste Triste, Molesto Molesto

 
Última edición:
Excelente peli , gracias BESTIA !!!:aplausos::LXR:
 
Muchas gracias Re-vol-ver-21!!!!

Saludos! victory
 
Volver