High School (2010) m-1080p Dual Latino-Inglés [Subt. Esp-Ing] (Comedia)

Maestro Revolver

Well-known member
Miembro del Staff
Administrador
Registro
9 Ago 2012
Mensajes
3.569
Reacciones
59.341
Puntos
113

Reputation:

Aporte recuperado gracias a nuestro amigo clasaase






TÍTULO ORIGINAL: High School
AÑO: 2010
DURACIÓN: 100 min.
PAÍS: USA
DIRECTOR: John Stalberg
GUIÓN: Erik Linthorst, John Stalberg, Stephen Susco
REPARTO: Adrien Brody, Sean Marquette, Matt Bush, Colin Hanks, Michael Chiklis, Adhir Kalyan
PRODUCTORA: Walden Media / Walt Disney Pictures / Stillking Films
GÉNERO: Comedia | Drogas. Colegios & Universidad
http://www.imdb.com/title/tt1247667/





En la historia, el nudo transcurre en una escuela secundaria donde se pondrán en marcha una serie de test antidroga, ya que su consumo ha aumentado mucho entre el alumnado. El director de la escuela tendrá que vérselas con el personaje de Adrien Brody, que será un camello que le vende la droga a los alumnos.






















La pelicula NO tiene ninguna marca... solo colocamos el nombre de esta web en las capturas





Código:
General
Format                           : Matroska
Format version                   : Version 2
File size                        : 3.70 GiB
Duration                         : 1h 39mn
Overall bit rate                 : 5 322 Kbps
Movie name                       : www.club-hd.com
Encoded date                     : UTC 2012-10-08 01:08:20
Writing application              : mkvmerge v4.4.0 ('Die Wiederkehr') built on Oct 31 2010 21:52:48
Writing library                  : libebml v1.0.0 + libmatroska v1.0.0

Video
ID                               : 1
Format                           : AVC
Format/Info                      : Advanced Video Codec
Format profile                   : Main@L4.0
Format settings, CABAC           : Yes
Format settings, ReFrames        : 4 frames
Muxing mode                      : Header stripping
Codec ID                         : V_MPEG4/ISO/AVC
Duration                         : 1h 39mn
Bit rate                         : 4 600 Kbps
Width                            : 1 920 pixels
Height                           : 800 pixels
Display aspect ratio             : 2.40:1
Frame rate                       : 23.976 fps
Color space                      : YUV
Chroma subsampling               : 4:2:0
Bit depth                        : 8 bits
Scan type                        : Progressive
Bits/(Pixel*Frame)               : 0.125
Stream size                      : 3.05 GiB (82%)
Title                            : www.club-hd.com
Writing library                  : x264 core 112
Language                         : English
Default                          : Yes
Forced                           : No
Color primaries                  : BT.709-5, BT.1361, IEC 61966-2-4, SMPTE RP177
Transfer characteristics         : BT.709-5, BT.1361
Matrix coefficients              : BT.709-5, BT.1361, IEC 61966-2-4 709, SMPTE RP177

Audio #1
ID                               : 2
Format                           : AC-3
Format/Info                      : Audio Coding 3
Format profile                   : Dolby Digital
Mode extension                   : CM (complete main)
Muxing mode                      : Header stripping
Codec ID                         : A_AC3
Duration                         : 1h 39mn
Bit rate mode                    : Constant
Bit rate                         : 192 Kbps
Channel(s)                       : 2 channels
Channel positions                : Front: L R
Sampling rate                    : 48.0 KHz
Bit depth                        : 16 bits
Compression mode                 : Lossy
Stream size                      : 137 MiB (4%)
Title                            : www.club-hd.com  >>  Latino
Language                         : Spanish
Default                          : Yes
Forced                           : No

Audio #2
ID                               : 3
Format                           : AC-3
Format/Info                      : Audio Coding 3
Mode extension                   : CM (complete main)
Muxing mode                      : Header stripping
Codec ID                         : A_AC3
Duration                         : 1h 39mn
Bit rate mode                    : Constant
Bit rate                         : 640 Kbps
Channel(s)                       : 6 channels
Channel positions                : Front: L C R, Side: L R, LFE
Sampling rate                    : 48.0 KHz
Bit depth                        : 16 bits
Compression mode                 : Lossy
Stream size                      : 456 MiB (12%)
Title                            : www.club-hd.com  >>  Inglés
Language                         : English
Default                          : No
Forced                           : No

Text #1
ID                               : 4
Format                           : UTF-8
Codec ID                         : S_TEXT/UTF8
Codec ID/Info                    : UTF-8 Plain Text
Language                         : Spanish
Default                          : No
Forced                           : No

Text #2
ID                               : 5
Format                           : UTF-8
Codec ID                         : S_TEXT/UTF8
Codec ID/Info                    : UTF-8 Plain Text
Language                         : English
Default                          : No
Forced                           : No

Menu
00:00:00.000                     : en:Chapter 1
00:06:11.287                     : en:Chapter 2
00:17:41.685                     : en:Chapter 3
00:25:11.843                     : en:Chapter 4
00:34:07.086                     : en:Chapter 5
00:41:19.935                     : en:Chapter 6
00:51:06.646                     : en:Chapter 7
00:57:08.925                     : en:Chapter 8
01:04:43.671                     : en:Chapter 9
01:19:43.236                     : en:Chapter 10
01:28:08.574                     : en:Chapter 11
01:33:36.235                     : en:Chapter 12












Todos los links son Intercambiables!



Enlaces de Mega y Fireload solo disponibles para Miembros VIP

Compra tu Membresía VIP y apoya a Club-HD!

ATENCIÓN! Tenemos TODO el material de Club-HD disponible por Mega y Fireload, enlaces 100% activos y online hasta la fecha

Llévate tus cuentas Mega PRO II gratis con tu membresía VIP!
Todos los posts vivos con links de Mega y Fireload.
Todo el material de Club-HD desbloqueado y sin publicidad.

Click Aquí para más información.


Para ver este contenido oculto, debes dar click en una de las siguientes reacciones : Like Like, Love Love, Haha Haha, Wow Wow, Sad Sad, Angry Angry


Para ver este contenido oculto, debes dar click en una de las siguientes reacciones : Like Like, Love Love, Haha Haha, Wow Wow, Sad Sad, Angry Angry
 
Última edición por un moderador:

arkkangeldark

Well-known member
Registro
27 Ago 2012
Mensajes
3.445
Reacciones
576
Puntos
113
Edad
34
Ubicación
Torreon Coahuila

Reputation:

hace como un mes la habia pedido y me habias dicho que no la postearias porke era del 2010 y veo que ya la posteaste....pero pues bueno a descargarla
 

Usuarios Que Están Viendo Este Tema (Total: 1, Miembros: 0, Invitados: 1)

Arriba