Hijo de Caín (2013) 720p BDRip Audio Español (Thriller. Intriga)

Maestro Revolver

Well-known member
Miembro del Staff
Administrador
Registro
9 Ago 2012
Mensajes
3.567








TÍTULO ORIGINAL: Fill de Caín (Hijo de Caín)
AÑO: 2013
DURACIÓN: 90 min.
PAÍS: España
DIRECTOR: Jesús Monllaó
GUIÓN: Sergio Barrejón, David Victori (Novela: Ignacio García-Valiño)
REPARTO: Julio Manrique, José Coronado, David Solans, María Molins, Jack Taylor, Helena De la Torre, Abril García, Mercè Rovira
PRODUCTORA: Ajuntament de Tarragona / Audiovisual Aval SGR / FoscaFilms / Generalitat de Catalunya - ICIC / ICF / ICO / ICAA / Life & Pictures / Salto de Eje / TV3
GÉNERO: Thriller. Intriga | Adolescencia. Ajedrez
: http://www.imdb.com/title/tt2090497/






Nico Albert es un adolescente de carácter muy peculiar, inteligencia excepcional y una única obsesión: el ajedrez. Sus padres, preocupados por la anómala actitud de su hijo, contratan al psicólogo infantil Julio Beltrán. A través de la terapia y de la afición común al ajedrez, Julio se adentrará en el inquietante mundo de Nico y en las complejas relaciones de esta familia aparentemente normal.
























La pelicula NO tiene ninguna marca... solo colocamos el nombre de esta web en las capturas






Código:
General
Format                                   : Matroska
Format version                           : Version 2
File size                                : 3.81 GiB
Duration                                 : 1h 31mn
Overall bit rate                         : 5 985 Kbps
Movie name                               : www.club-hd.com
Encoded date                             : UTC 2013-11-29 16:33:35
Writing application                      : mkvmerge v5.7.0 ('The Whirlwind') built on Jul  8 2012 20:08:51
Writing library                          : libebml v1.2.3 + libmatroska v1.3.0

Video
ID                                       : 1
Format                                   : AVC
Format/Info                              : Advanced Video Codec
Format profile                           : High@L4.1
Format settings, CABAC                   : Yes
Format settings, ReFrames                : 9 frames
Codec ID                                 : V_MPEG4/ISO/AVC
Duration                                 : 1h 31mn
Bit rate                                 : 5 226 Kbps
Width                                    : 1 280 pixels
Height                                   : 690 pixels
Display aspect ratio                     : 1.85:1
Frame rate mode                          : Constant
Frame rate                               : 23.976 fps
Color space                              : YUV
Chroma subsampling                       : 4:2:0
Bit depth                                : 8 bits
Scan type                                : Progressive
Bits/(Pixel*Frame)                       : 0.247
Stream size                              : 3.32 GiB (87%)
Title                                    : www.club-hd.com
Language                                 : Spanish
Default                                  : Yes
Forced                                   : No

Audio
ID                                       : 2
Format                                   : AC-3
Format/Info                              : Audio Coding 3
Mode extension                           : CM (complete main)
Format settings, Endianness              : Big
Codec ID                                 : A_AC3
Duration                                 : 1h 31mn
Bit rate mode                            : Constant
Bit rate                                 : 640 Kbps
Channel(s)                               : 6 channels
Channel positions                        : Front: L C R, Side: L R, LFE
Sampling rate                            : 48.0 KHz
Bit depth                                : 16 bits
Compression mode                         : Lossy
Delay relative to video                  : 3s 0ms
Stream size                              : 417 MiB (11%)
Language                                 : Spanish
Default                                  : Yes
Forced                                   : No

Menu
00:00:00.000                             : en:00:00:00.000
00:06:39.316                             : en:00:06:39.316
00:13:23.511                             : en:00:13:23.511
00:20:08.916                             : en:00:20:08.916
00:27:14.716                             : en:00:27:14.716
00:33:57.327                             : en:00:33:57.327
00:45:14.795                             : en:00:45:14.795
00:52:42.659                             : en:00:52:42.659
00:58:59.828                             : en:00:58:59.828
01:06:55.720                             : en:01:06:55.720
01:13:02.461                             : en:01:13:02.461
01:21:01.940                             : en:01:21:01.940








Enlaces de Mega y Google Drive solo disponibles para Miembros VIP

Compra tu Membresía VIP y apoya a Club-HD!

ATENCIÓN! Tenemos TODO el material de Club-HD disponible por Mega y Google Drive, enlaces 100% activos y online hasta la fecha

Llévate tus cuentas Mega PRO III gratis con tu membresía VIP!
Todos los posts vivos con links de Mega y Google Drive.
Todo el material de Club-HD desbloqueado y sin publicidad.

Click Aquí para más información.



Para ver este contenido oculto, debes dar click en una de las siguientes reacciones : Like Like, Love Love, Haha Haha, Wow Wow, Sad Sad, Angry Angry

 
Última edición por un moderador:

Usuarios Que Están Viendo Este Tema (Total: 1, Miembros: 0, Invitados: 1)

Quién Leyó Este Tema (Total Miembros: 2)

Arriba