Hit and Run (2012) m-720p Audio Inglés [Subt. Esp] (Comedia. Acción)

Maestro Revolver

Well-known member
Miembro del Staff
Administrador
Registro
9 Ago 2012
Mensajes
3.569
Reacciones
59.341
Puntos
113

Reputation:


Aporte recuperado gracias a nuestro amigo clasaase







TÍTULO ORIGINAL: Hit and Run (Hit&Run)
AÑO: 2012
DURACIÓN: 100 min.
PAÍS: USA
DIRECTOR: David Palmer, Dax Shepard
GUIÓN: Dax Shepard
REPARTO: Kristen Bell, Dax Shepard, Kristin Chenoweth, Tom Arnold, Bradley Cooper, David Koechner
PRODUCTORA: Primate Pictures / Kim and Jim Productions / Panay Films
GÉNERO: Comedia. Acción. Romance
: http://www.imdb.com/title/tt2097307/






La película se centra en un ex-piloto de fugas (Shepard) que evade el programa de protección de testigos con el fin de llevar a su novia (Bell) a Los Ángeles para que esta pueda hacerse con el trabajo de su vida. Sin embargo, tanto las autoridades pertinentes como los integrantes de su antigua banda, comandados por el personaje de Cooper, se enterarán de su reaparición en la escena pública y y dara comienzo a una persecución sin freno.
























La pelicula NO tiene ninguna marca... solo colocamos el nombre de esta web en las capturas






Código:
General
Format                                   : Matroska
Format version                           : Version 2
File size                                : 2.20 GiB
Duration                                 : 1h 40mn
Overall bit rate                         : 3 151 Kbps
Movie name                               : www.club-hd.com
Encoded date                             : UTC 2012-12-30 19:40:08
Writing application                      : mkvmerge v5.7.0 ('The Whirlwind') built on Jul  8 2012 20:08:51
Writing library                          : libebml v1.2.3 + libmatroska v1.3.0

Video
ID                                       : 1
Format                                   : AVC
Format/Info                              : Advanced Video Codec
Format profile                           : High@L4.1
Format settings, CABAC                   : Yes
Format settings, ReFrames                : 9 frames
Codec ID                                 : V_MPEG4/ISO/AVC
Duration                                 : 1h 40mn
Bit rate                                 : 2 702 Kbps
Width                                    : 1 280 pixels
Height                                   : 536 pixels
Display aspect ratio                     : 2.40:1
Frame rate mode                          : Constant
Frame rate                               : 24.000 fps
Color space                              : YUV
Chroma subsampling                       : 4:2:0
Bit depth                                : 8 bits
Scan type                                : Progressive
Bits/(Pixel*Frame)                       : 0.164
Stream size                              : 1.85 GiB (84%)
Title                                    : www.club-hd.com
Writing library                          : x264 core 129 r2230 1cffe9f
Language                                 : English
Default                                  : Yes
Forced                                   : No

Audio
ID                                       : 2
Format                                   : AC-3
Format/Info                              : Audio Coding 3
Mode extension                           : CM (complete main)
Format settings, Endianness              : Big
Codec ID                                 : A_AC3
Duration                                 : 1h 40mn
Bit rate mode                            : Constant
Bit rate                                 : 448 Kbps
Channel(s)                               : 6 channels
Channel positions                        : Front: L C R, Side: L R, LFE
Sampling rate                            : 48.0 KHz
Bit depth                                : 16 bits
Compression mode                         : Lossy
Stream size                              : 321 MiB (14%)
Title                                    : www.club-hd.com
Language                                 : English
Default                                  : Yes
Forced                                   : No

Text
ID                                       : 3
Format                                   : UTF-8
Codec ID                                 : S_TEXT/UTF8
Codec ID/Info                            : UTF-8 Plain Text
Language                                 : Spanish
Default                                  : Yes
Forced                                   : No

Menu
00:00:00.000                             : en:Chapter 1
00:10:22.000                             : en:Chapter 2
00:19:06.292                             : en:Chapter 3
00:30:06.333                             : en:Chapter 4
00:37:27.833                             : en:Chapter 5
00:49:43.625                             : en:Chapter 6
00:58:13.750                             : en:Chapter 7
01:10:07.292                             : en:Chapter 8
01:20:13.833                             : en:Chapter 9
01:33:19.625                             : en:Chapter 10


CONTRASEÑA




DESCARGAR



Enlaces de Mega y Fireload solo disponibles para Miembros VIP

Compra tu Membresía VIP y apoya a Club-HD!

ATENCIÓN! Tenemos TODO el material de Club-HD disponible por Mega y Fireload, enlaces 100% activos y online hasta la fecha

Llévate tus cuentas Mega PRO II gratis con tu membresía VIP!
Todos los posts vivos con links de Mega y Fireload.
Todo el material de Club-HD desbloqueado y sin publicidad.

Click Aquí para más información.



Para ver este contenido oculto, debes dar click en una de las siguientes reacciones : Like Like, Love Love, Haha Haha, Wow Wow, Sad Sad, Angry Angry



Para ver este contenido oculto, debes dar click en una de las siguientes reacciones : Like Like, Love Love, Haha Haha, Wow Wow, Sad Sad, Angry Angry
 
Última edición por un moderador:

Yonatan

Admin
Miembro del Staff
Administrador
Registro
27 Ago 2012
Mensajes
1.768
Reacciones
3.728
Puntos
113
Edad
28
Ubicación
Chile, Sexta Región

Reputation:

veremos que tal esta, como siempre lo mejor de lo mejor Gracias maestro!
 

Usuarios Que Están Viendo Este Tema (Total: 1, Miembros: 0, Invitados: 1)

Arriba