Hit Man (2024) 1080p NF WEB-DL Latino-Inglés [Subt.Esp] (Acción. Thriller. Comedia)

LuchoO

責任者

Moderador
Uploader
Registro
15 Ago 2015
Mensajes
1.940
Reacciones (ptje)
29.011

cover.png



FICHA.TECNICA.png


Captura1.JPG


SINOPSIS.PNG



Gary Johnson es el asesino profesional más buscado de Nueva Orleans. Para sus clientes, es el sicario ideal. Pero si le pagas para que elimine a un cónyuge infiel o a un jefe maltratador, será mejor que tengas cuidado: trabaja para la policía. Cuando rompe el protocolo para ayudar a una mujer desesperada que intenta huir de un novio maltratador, se convierte en uno de sus falsos personajes, se enamora de la mujer y coquetea con convertirse él mismo en un criminal.

7.4



TRAILER.PNG



CAPTURAS.PNG


hm.0001.jpeg


hm.0002.jpeg


hm.0003.jpeg


hm.0004.jpeg



MEDIAINFO.PNG

General
Complete name : Hit Man 2024 NF WEB-DL 1080p H264 Dual.mkv
Format : Matroska
Format version : Version 4
File size : 7.27 GiB
Duration : 1 h 55 min
Overall bit rate mode : Variable
Overall bit rate : 8 998 kb/s
Frame rate : 24.000 FPS
Movie name : [Club-HD] Hit Man 2024 NF WEB-DL 1080p H264 Dual.mkv
Encoded date : 2024-06-07 08:22:18 UTC
Writing application : mkvmerge v77.0 ('Elemental') 64-bit
Writing library : libebml v1.4.4 + libmatroska v1.7.1

Video
ID : 1
Format : AVC
Format/Info : Advanced Video Codec
Format profile : High@L4
Format settings : CABAC / 4 Ref Frames
Format settings, CABAC : Yes
Format settings, Reference frames : 4 frames
Codec ID : V_MPEG4/ISO/AVC
Duration : 1 h 55 min
Bit rate mode : Variable
Bit rate : 7 588 kb/s
Maximum bit rate : 20.0 Mb/s
Width : 1 920 pixels
Height : 1 080 pixels
Display aspect ratio : 16:9
Frame rate mode : Constant
Frame rate : 24.000 FPS
Color space : YUV
Chroma subsampling : 4:2:0
Bit depth : 8 bits
Scan type : Progressive
Bits/(Pixel*Frame) : 0.152
Stream size : 6.13 GiB (84%)
Writing library : x264 core 148 r2727 7d026e8
Encoding settings : cabac=1 / ref=4 / deblock=1:0:0 / analyse=0x3:0x111 / me=umh / subme=10 / psy=1 / psy_rd=1.00:0.00 / mixed_ref=1 / me_range=120 / chroma_me=1 / trellis=2 / 8x8dct=1 / cqm=0 / deadzone=21,11 / fast_pskip=1 / chroma_qp_offset=-2 / threads=6 / lookahead_threads=1 / sliced_threads=0 / nr=0 / decimate=1 / interlaced=0 / bluray_compat=0 / stitchable=1 / constrained_intra=0 / bframes=16 / b_pyramid=2 / b_adapt=2 / b_bias=0 / direct=3 / weightb=1 / open_gop=0 / weightp=2 / keyint=240 / keyint_min=121 / scenecut=0 / intra_refresh=0 / rc_lookahead=240 / rc=crf / mbtree=1 / crf=17.0 / qcomp=0.50 / qpmin=6 / qpmax=51 / qpstep=4 / vbv_maxrate=20000 / vbv_bufsize=25000 / crf_max=0.0 / nal_hrd=vbr / filler=0 / ip_ratio=1.40 / aq=1:0.80
Language : English
Default : Yes
Forced : No

Audio #1
ID : 2
Format : E-AC-3
Format/Info : Enhanced AC-3
Commercial name : Dolby Digital Plus
Codec ID : A_EAC3
Duration : 1 h 55 min
Bit rate mode : Constant
Bit rate : 640 kb/s
Channel(s) : 6 channels
Channel layout : L R C LFE Ls Rs
Sampling rate : 48.0 kHz
Frame rate : 31.250 FPS (1536 SPF)
Compression mode : Lossy
Stream size : 529 MiB (7%)
Language : Spanish
Service kind : Complete Main
Default : Yes
Forced : No

Audio #2
ID : 3
Format : E-AC-3 JOC
Format/Info : Enhanced AC-3 with Joint Object Coding
Commercial name : Dolby Digital Plus with Dolby Atmos
Codec ID : A_EAC3
Duration : 1 h 55 min
Bit rate mode : Constant
Bit rate : 768 kb/s
Channel(s) : 6 channels
Channel layout : L R C LFE Ls Rs
Sampling rate : 48.0 kHz
Frame rate : 31.250 FPS (1536 SPF)
Compression mode : Lossy
Stream size : 635 MiB (9%)
Language : English
Service kind : Complete Main
Default : No
Forced : No
Complexity index : 16
Number of dynamic objects : 15
Bed channel count : 1 channel
Bed channel configuration : LFE

Text #1
ID : 4
Format : UTF-8
Codec ID : S_TEXT/UTF8
Codec ID/Info : UTF-8 Plain Text
Duration : 1 h 47 min
Bit rate : 1 b/s
Frame rate : 0.007 FPS
Count of elements : 44
Stream size : 1.00 KiB (0%)
Title : Forced
Language : Spanish (Latin America)
Default : Yes
Forced : Yes

Text #2
ID : 5
Format : UTF-8
Codec ID : S_TEXT/UTF8
Codec ID/Info : UTF-8 Plain Text
Duration : 1 h 54 min
Bit rate : 70 b/s
Frame rate : 0.275 FPS
Count of elements : 1884
Stream size : 58.6 KiB (0%)
Title : Latin American
Language : Spanish (Latin America)
Default : No
Forced : No

Text #3
ID : 6
Format : UTF-8
Codec ID : S_TEXT/UTF8
Codec ID/Info : UTF-8 Plain Text
Duration : 1 h 54 min
Bit rate : 75 b/s
Frame rate : 0.292 FPS
Count of elements : 2005
Stream size : 63.6 KiB (0%)
Title : SDH
Language : Spanish (Latin America)
Default : No
Forced : No

Text #4
ID : 7
Format : UTF-8
Codec ID : S_TEXT/UTF8
Codec ID/Info : UTF-8 Plain Text
Duration : 1 h 47 min
Bit rate : 81 b/s
Frame rate : 0.295 FPS
Count of elements : 1904
Stream size : 63.8 KiB (0%)
Language : English
Default : No
Forced : No

Text #5
ID : 8
Format : UTF-8
Codec ID : S_TEXT/UTF8
Codec ID/Info : UTF-8 Plain Text
Duration : 1 h 48 min
Bit rate : 85 b/s
Frame rate : 0.311 FPS
Count of elements : 2014
Stream size : 67.3 KiB (0%)
Title : SDH
Language : English
Default : No
Forced : No


DESCARGA.PNG


⭐ 1 LINK MKV VIP ⭐

Mega.png

Tenemos TODO el material de Club-HD disponible por Mega, enlaces 100% activos y online hasta la fecha

Llévate tus cuentas Mega PRO III gratis con tu membresía VIP!
Todos los posts vivos con links de Mega.
Todo el material de Club-HD desbloqueado y sin publicidad.

Obtén más información sobre nuestras Membresías VIP


LINKS FREE PÚBLICOS

Fireload.png


¡Click aquí para descargar desde Fireload!


1cloudfile.png


¡Click aquí para descargar desde 1cloudfile!

"Solo Audio Latino"
 
Volver