Hitchcock (2012) m-720p BDRip Dual Latino-Inglés [Subt. Esp-Ing] (Drama)

Max

Admin
Miembro del Staff
Administrador
Registro
8 Ago 2012
Mensajes
5.586
Reacciones
23.743
Puntos
113
Ubicación
Disco C

Reputation:


Aporte Recuperado gracias a nuestro amigo Dynky




TÍTULO ORIGINAL: Hitchcock (Alfred Hitchcock and the Making of 'Psycho')
AÑO: 2012
DURACIÓN: 98 min.
PAÍS: Estados Unidos
DIRECTOR: Sacha Gervasi
GUIÓN: John J. McLaughlin, Stephen Rebello (Libro: Stephen Rebello)
MÚSICA: Danny Elfman
FOTOGRAFÍA: Jeff Cronenweth
REPARTO: Anthony Hopkins, Helen Mirren, Scarlett Johansson, James D'Arcy, Jessica Biel, Toni Collette, Danny Huston, Michael Stuhlbarg, Kurtwood Smith, Richard Portnow, Ralph Macchio, Michael Wincott, Frank Collison
PRODUCTORA: Fox Searchlight Pictures / The Montecito Picture Company
PREMIOS:
2012: Oscar: nominada a Mejor maquillaje y peluquería
2012: Globos de Oro: nominada a Mejor actriz drama (Helen Mirren)
2012: Premios BAFTA: 2 nominaciones: Mejor actriz (Helen Mirren) y maquillaje
GÉNERO: Drama | Biográfico. Cine dentro del cine. Años 50. Años 60

http://www.imdb.com/title/tt0975645/?ref_=fn_al_tt_1





En la cima de su carrera como director, Alfred Hitchcock (Anthony Hopkins) decide filmar una película de terror aparentemente de baja categoría. Ningún estudio apoya el proyecto, así que Hitchcock decide financiarlo él mismo y rodarla con un equipo barato de TV. El resultado fue un fenómeno internacional y una de las películas más famosas e influyentes de la historia.


























Código:
General
Complete name                            : Hitchcock (2012) m-720p BDRip Dual Latino-Inglés [Subt. Esp-Ing].mkv
Format                                   : Matroska
Format version                           : Version 2
File size                                : 2.61 GiB
Duration                                 : 1h 38mn
Overall bit rate                         : 3 802 Kbps
Movie name                               : www.club-hd.com --> Hitchcock (2012) m-720p BDRip Dual Latino-Inglés [Subt. Esp-Ing]
Encoded date                             : UTC 2013-03-05 14:53:18
Writing application                      : mkvmerge v5.7.0 ('The Whirlwind') built on Jul  8 2012 20:08:51
Writing library                          : libebml v1.2.3 + libmatroska v1.3.0

Video
ID                                       : 1
Format                                   : AVC
Format/Info                              : Advanced Video Codec
Format profile                           : High@L4.1
Format settings, CABAC                   : Yes
Format settings, ReFrames                : 9 frames
Codec ID                                 : V_MPEG4/ISO/AVC
Duration                                 : 1h 38mn
Bit rate                                 : 2 712 Kbps
Width                                    : 1 280 pixels
Height                                   : 534 pixels
Display aspect ratio                     : 2.40:1
Frame rate mode                          : Constant
Frame rate                               : 23.976 fps
Color space                              : YUV
Chroma subsampling                       : 4:2:0
Bit depth                                : 8 bits
Scan type                                : Progressive
Bits/(Pixel*Frame)                       : 0.165
Stream size                              : 1.81 GiB (69%)
Title                                    : www.club-hd.com --> Hitchcock (2012) m-720p BDRip Dual Latino-Inglés [Subt. Esp-Ing]
Writing library                          : x264 core 130 r2273 b3065e6
Encoding settings                        : cabac=1 / ref=9 / deblock=1:-3:-3 / analyse=0x3:0x113 / me=umh / subme=10 / psy=1 / psy_rd=1.00:0.00 / mixed_ref=1 / me_range=16 / chroma_me=1 / trellis=2 / 8x8dct=1 / cqm=0 / deadzone=21,11 / fast_pskip=1 / chroma_qp_offset=-2 / threads=12 / lookahead_threads=1 / sliced_threads=0 / nr=0 / decimate=1 / interlaced=0 / bluray_compat=0 / constrained_intra=0 / bframes=5 / b_pyramid=2 / b_adapt=1 / b_bias=0 / direct=1 / weightb=1 / open_gop=0 / weightp=2 / keyint=250 / keyint_min=23 / scenecut=40 / intra_refresh=0 / rc=2pass / mbtree=0 / bitrate=2712 / ratetol=1.0 / qcomp=0.60 / qpmin=0 / qpmax=69 / qpstep=4 / cplxblur=20.0 / qblur=0.5 / ip_ratio=1.40 / pb_ratio=1.30 / aq=1:0.80
Language                                 : English
Default                                  : Yes
Forced                                   : No

Audio #1
ID                                       : 2
Format                                   : AC-3
Format/Info                              : Audio Coding 3
Mode extension                           : CM (complete main)
Format settings, Endianness              : Big
Codec ID                                 : A_AC3
Duration                                 : 1h 38mn
Bit rate mode                            : Constant
Bit rate                                 : 448 Kbps
Channel(s)                               : 6 channels
Channel positions                        : Front: L C R, Side: L R, LFE
Sampling rate                            : 48.0 KHz
Bit depth                                : 16 bits
Compression mode                         : Lossy
Stream size                              : 315 MiB (12%)
Title                                    : Hitchcock (2012) Español Latino AC3 5.1
Language                                 : Spanish
Default                                  : Yes
Forced                                   : No

Audio #2
ID                                       : 3
Format                                   : AC-3
Format/Info                              : Audio Coding 3
Mode extension                           : CM (complete main)
Format settings, Endianness              : Big
Codec ID                                 : A_AC3
Duration                                 : 1h 38mn
Bit rate mode                            : Constant
Bit rate                                 : 640 Kbps
Channel(s)                               : 6 channels
Channel positions                        : Front: L C R, Side: L R, LFE
Sampling rate                            : 48.0 KHz
Bit depth                                : 16 bits
Compression mode                         : Lossy
Stream size                              : 450 MiB (17%)
Title                                    : Hitchcock (2012) Inglés AC3 5.1
Language                                 : English
Default                                  : No
Forced                                   : No

Text #1
ID                                       : 4
Format                                   : UTF-8
Codec ID                                 : S_TEXT/UTF8
Codec ID/Info                            : UTF-8 Plain Text
Title                                    : Subtítulos Español
Language                                 : Spanish
Default                                  : No
Forced                                   : No

Text #2
ID                                       : 5
Format                                   : UTF-8
Codec ID                                 : S_TEXT/UTF8
Codec ID/Info                            : UTF-8 Plain Text
Title                                    : Subtítulos Inglés
Language                                 : English
Default                                  : No
Forced                                   : No

Menu
00:00:00.000                             : en:Chapter 1
00:02:26.730                             : en:Chapter 2
00:05:17.108                             : en:Chapter 3
00:08:41.146                             : en:Chapter 4
00:12:26.162                             : en:Chapter 5
00:14:41.380                             : en:Chapter 6
00:19:07.396                             : en:Chapter 7
00:20:56.839                             : en:Chapter 8
00:23:48.677                             : en:Chapter 9
00:25:14.221                             : en:Chapter 10
00:27:13.423                             : en:Chapter 11
00:31:10.452                             : en:Chapter 12
00:32:15.809                             : en:Chapter 13
00:34:21.726                             : en:Chapter 14
00:37:30.123                             : en:Chapter 15
00:39:06.553                             : en:Chapter 16
00:43:22.975                             : en:Chapter 17
00:45:50.998                             : en:Chapter 18
00:49:19.498                             : en:Chapter 19
00:52:54.797                             : en:Chapter 20
00:58:12.072                             : en:Chapter 21
01:00:32.838                             : en:Chapter 22
01:03:56.458                             : en:Chapter 23
01:10:03.866                             : en:Chapter 24
01:15:35.114                             : en:Chapter 25
01:19:40.818                             : en:Chapter 26
01:22:38.495                             : en:Chapter 27
01:23:54.238                             : en:Chapter 28
01:25:57.069                             : en:Chapter 29
01:28:13.413                             : en:Chapter 30
01:29:46.131                             : en:Chapter 31
01:31:38.493                             : en:Chapter 32














Enlaces de Mega y Fireload solo disponibles para Miembros VIP

Compra tu Membresía VIP y apoya a Club-HD!

ATENCIÓN! Tenemos TODO el material de Club-HD disponible por Mega y Fireload, enlaces 100% activos y online hasta la fecha

Llévate tus cuentas Mega PRO II gratis con tu membresía VIP!
Todos los posts vivos con links de Mega y Fireload.
Todo el material de Club-HD desbloqueado y sin publicidad.

Click Aquí para más información.


Para ver este contenido oculto, debes dar click en una de las siguientes reacciones : Like Like, Love Love, Haha Haha, Wow Wow, Sad Sad, Angry Angry


Para ver este contenido oculto, debes dar click en una de las siguientes reacciones : Like Like, Love Love, Haha Haha, Wow Wow, Sad Sad, Angry Angry
 
Última edición:

jave1992

New member
Registro
29 Ago 2012
Mensajes
278
Reacciones
3
Puntos
0
Edad
29
Ubicación
Lima

Reputation:

bien m*****daa ¡¡¡ :aplausos:
 
Última edición por un moderador:

Nosferatu

Well-known member
Súper Moderador
Registro
31 Ago 2012
Mensajes
2.275
Reacciones
1.362
Puntos
113
Edad
44
Ubicación
Welcome to Hell!!

Reputation:

Y esto que te tenias guardado Pichón?4stuto, Muchas Gracias por este estreno, veremos a ver que tal.:aplausos::aplausos::aplausos:

Muchas Gracias Monstruo MAX!:aplausos::aplausos::LXR::LXR:
 

Lug

Well-known member
Registro
24 Oct 2012
Mensajes
1.691
Reacciones
37
Puntos
48
Edad
62

Reputation:

Desc_g_
Ahí vamos......
 

arkkangeldark

Well-known member
Registro
27 Ago 2012
Mensajes
3.445
Reacciones
576
Puntos
113
Edad
34
Ubicación
Torreon Coahuila

Reputation:

miralo un super estreno max, excelente ojala tambien la puedas subir luego en 1080p, gracias por esta gran pelicula, saludos
 

zacygal

Well-known member
Registro
3 Sep 2012
Mensajes
1.515
Reacciones
1.536
Puntos
113
Edad
49

Reputation:

Grax Max muy buena ...
 

Bankai

Active member
Uploader
Colaborador
Registro
28 Ago 2012
Mensajes
733
Reacciones
48
Puntos
28

Reputation:

gracias mr max
 

Usuarios Que Están Viendo Este Tema (Total: 1, Miembros: 0, Invitados: 1)

Arriba