House at the End of the Street (2012) m-720p Audio Inglés [Subt. Esp] (Thriller. Terror. Intriga)

Maestro Revolver

Well-known member
Miembro del Staff
Administrador
Registro
9 Ago 2012
Mensajes
3.569
Reacciones
59.346
Puntos
113

Reputation:









TÍTULO ORIGINAL: House at the End of the Street
AÑO: 2012
DURACIÓN: 101 min.
PAÍS: Reino Unido
DIRECTOR: Mark Tonderai
GUIÓN: David Loucka, Jonathan Mostow
REPARTO: Jennifer Lawrence, Elisabeth Shue, Max Thieriot, Nolan Gerard Funk, Gil Bellows, Krista Bridges, Allie MacDonald, James Thomas, Jonathan Malen, Jon McLaren, Joy Tanner
PRODUCTORA: A Bigger Boat / FilmNation Entertainment / Relativity Media
GÉNERO: Thriller. Terror. Intriga
: http://www.imdb.com/title/tt1582507/






Cuando una chica adolescente se muda junto a su madre a un nuevo pueblo, descubre que su casa esta frente a otra en la que tuvo lugar un doble asesinato. Las cosas comenzarán a complicarse cuando la joven se hace amiga de un chico que sobrevivió a la masacre...
























La pelicula NO tiene ninguna marca... solo colocamos el nombre de esta web en las capturas






Código:
General
Format                                   : Matroska
Format version                           : Version 2
File size                                : 2.20 GiB
Duration                                 : 1h 41mn
Overall bit rate                         : 3 097 Kbps
Movie name                               : www.club-hd.com
Encoded date                             : UTC 2012-12-27 21:19:17
Writing application                      : mkvmerge v5.7.0 ('The Whirlwind') built on Jul  8 2012 20:08:51
Writing library                          : libebml v1.2.3 + libmatroska v1.3.0

Video
ID                                       : 1
Format                                   : AVC
Format/Info                              : Advanced Video Codec
Format profile                           : High@L4.1
Format settings, CABAC                   : Yes
Format settings, ReFrames                : 9 frames
Codec ID                                 : V_MPEG4/ISO/AVC
Duration                                 : 1h 41mn
Bit rate                                 : 2 652 Kbps
Width                                    : 1 280 pixels
Height                                   : 534 pixels
Display aspect ratio                     : 2.40:1
Frame rate mode                          : Constant
Frame rate                               : 23.976 fps
Color space                              : YUV
Chroma subsampling                       : 4:2:0
Bit depth                                : 8 bits
Scan type                                : Progressive
Bits/(Pixel*Frame)                       : 0.162
Stream size                              : 1.84 GiB (84%)
Title                                    : www.club-hd.com
Writing library                          : x264 core 129 r2230 1cffe9f
Language                                 : English
Default                                  : Yes
Forced                                   : No

Audio
ID                                       : 2
Format                                   : AC-3
Format/Info                              : Audio Coding 3
Mode extension                           : CM (complete main)
Format settings, Endianness              : Big
Codec ID                                 : A_AC3
Duration                                 : 1h 41mn
Bit rate mode                            : Constant
Bit rate                                 : 448 Kbps
Channel(s)                               : 6 channels
Channel positions                        : Front: L C R, Side: L R, LFE
Sampling rate                            : 48.0 KHz
Bit depth                                : 16 bits
Compression mode                         : Lossy
Stream size                              : 326 MiB (14%)
Title                                    : www.club-hd.com
Language                                 : English
Default                                  : Yes
Forced                                   : No

Text
ID                                       : 3
Format                                   : UTF-8
Codec ID                                 : S_TEXT/UTF8
Codec ID/Info                            : UTF-8 Plain Text
Language                                 : Spanish
Default                                  : Yes
Forced                                   : No

Menu
00:00:00.000                             : en:Chapter 1
00:04:30.729                             : en:Chapter 2
00:08:55.160                             : en:Chapter 3
00:13:02.949                             : en:Chapter 4
00:17:14.450                             : en:Chapter 5
00:23:05.342                             : en:Chapter 6
00:28:31.752                             : en:Chapter 7
00:35:37.719                             : en:Chapter 8
00:39:06.427                             : en:Chapter 9
00:42:46.772                             : en:Chapter 10
00:46:20.444                             : en:Chapter 11
00:51:48.772                             : en:Chapter 12
00:59:14.342                             : en:Chapter 13
01:03:59.085                             : en:Chapter 14
01:07:26.334                             : en:Chapter 15
01:11:07.972                             : en:Chapter 16
01:15:20.808                             : en:Chapter 17
01:18:41.091                             : en:Chapter 18
01:23:02.978                             : en:Chapter 19
01:26:48.787                             : en:Chapter 20
01:30:13.825                             : en:Chapter 21
01:31:26.731                             : en:Chapter 22
01:35:31.601                             : en:Chapter 23










Enlaces de Mega y Fireload solo disponibles para Miembros VIP

Compra tu Membresía VIP y apoya a Club-HD!

ATENCIÓN! Tenemos TODO el material de Club-HD disponible por Mega y Fireload, enlaces 100% activos y online hasta la fecha

Llévate tus cuentas Mega PRO II gratis con tu membresía VIP!
Todos los posts vivos con links de Mega y Fireload.
Todo el material de Club-HD desbloqueado y sin publicidad.

Click Aquí para más información.




Enlaces de Mega y Fireload solo disponibles para Miembros VIP

Compra tu Membresía VIP y apoya a Club-HD!

ATENCIÓN! Tenemos TODO el material de Club-HD disponible por Mega y Fireload, enlaces 100% activos y online hasta la fecha

Llévate tus cuentas Mega PRO II gratis con tu membresía VIP!
Todos los posts vivos con links de Mega y Fireload.
Todo el material de Club-HD desbloqueado y sin publicidad.

Click Aquí para más información.



Para ver este contenido oculto, debes dar click en una de las siguientes reacciones : Like Like, Love Love, Haha Haha, Wow Wow, Sad Sad, Angry Angry
 
Última edición:

Maestro Revolver

Well-known member
Miembro del Staff
Administrador
Registro
9 Ago 2012
Mensajes
3.569
Reacciones
59.346
Puntos
113

Reputation:

A los subtitulos le falta un poquitin de sincronización en algunas partes. Si quieren pueden pasar por www.subdivx.com y ver si salio un mejor sub. Saludos amigos.
 
Última edición:

clasaase

Clasaase
Miembro del Staff
Moderador
Colaborador
Miembro VIP
Registro
3 Sep 2012
Mensajes
2.418
Reacciones
910
Puntos
113
Ubicación
Chile

Reputation:

la esperaba, grande.
 

zeystarr

New member
Registro
27 Ago 2012
Mensajes
451
Reacciones
12
Puntos
0
Edad
38

Reputation:

muchas gracias ojala puedan subir ...lluvia de hamburguesas!!
 

Usuarios Que Están Viendo Este Tema (Total: 1, Miembros: 0, Invitados: 1)

Arriba