House of Lies S01-04 (2012) 1080p AMZN WEB-DL Latino-Inglés [Subt.Esp] (Comedia negra. Bolsa & Negocios)

Trevor

Well-known member
Miembro del Staff
Uploader
Registro
17 May 2018
Mensajes
1.616
Edad
33


[prebreak][/prebreak]


El consultor fascinante y rápido al hablar, Marty Kaan y su equipo de colegas que tienen más de un título de MBA, encantan de forma petulante a los grandes ejecutivos de corporaciones, sin sospechar que el equipo lo único que quiere es cerrar grandes negocios, en el que los ejecutivos tendrán que gastar una fortuna por los servicios de Kaan y su equipo. Kaan no está excepto de utilizar los medios necesarios o (a alguien) para obtener lo que quiere. Los miembros del equipo de Kaan incluyen a Jeannie van der Hooven, graduada sagaz de una universidad prestigiosa, Clyde Oberholt, un mujeriego despreocupado y Doug Guggenheim, un matemático aficionado que no tiene mucho éxito con las mujeres. La ex esposa de Marty, Monica Talbot, es una consultora de la firma rival y sin sorpresa, es su rival profesional. Marty vive con su padre, un pensionado psicólogo y su hijo joven, Roscoe.



Código:
Format                      : Matroska
Format version              : Version 4
File size                   : 2.01 GiB
Duration                    : 28 min 55 s
Overall bit rate            : 9 964 kb/s
Encoded date                : UTC 2022-02-10 01:51:41
Writing application         : mkvmerge v58.0.0 ('Supper's Ready') 32-bit
Writing library             : libebml v1.4.2 + libmatroska v1.6.4

Video
ID                          : 1
Format                      : AVC
Format/Info                 : Advanced Video Codec
Format profile              : High@L4
Format settings             : CABAC / 4 Ref Frames
Format settings, CABAC      : Yes
Format settings, Reference  : 4 frames
Codec ID                    : V_MPEG4/ISO/AVC
Duration                    : 28 min 55 s
Bit rate mode               : Constant
Bit rate                    : 9 513 kb/s
Nominal bit rate            : 10 000 kb/s
Width                       : 1 920 pixels
Height                      : 1 080 pixels
Display aspect ratio        : 16:9
Frame rate mode             : Constant
Frame rate                  : 23.976 (24000/1001) FPS
Color space                 : YUV
Chroma subsampling          : 4:2:0
Bit depth                   : 8 bits
Scan type                   : Progressive
Bits/(Pixel*Frame)          : 0.191
Stream size                 : 1.92 GiB (95%)
Default                     : Yes
Forced                      : No
Color range                 : Limited
Color primaries             : BT.709
Transfer characteristics    : BT.709
Matrix coefficients         : BT.709

Audio #1
ID                          : 2
Format                      : E-AC-3
Format/Info                 : Enhanced AC-3
Commercial name             : Dolby Digital Plus
Codec ID                    : A_EAC3
Duration                    : 28 min 55 s
Bit rate mode               : Constant
Bit rate                    : 224 kb/s
Channel(s)                  : 2 channels
Channel layout              : L R
Sampling rate               : 48.0 kHz
Frame rate                  : 31.250 FPS (1536 SPF)
Compression mode            : Lossy
Stream size                 : 46.3 MiB (2%)
Title                       : Spanish
Language                    : Spanish
Service kind                : Complete Main
Default                     : Yes
Forced                      : No

Audio #2
ID                          : 3
Format                      : E-AC-3
Format/Info                 : Enhanced AC-3
Commercial name             : Dolby Digital Plus
Codec ID                    : A_EAC3
Duration                    : 28 min 55 s
Bit rate mode               : Constant
Bit rate                    : 224 kb/s
Channel(s)                  : 2 channels
Channel layout              : L R
Sampling rate               : 48.0 kHz
Frame rate                  : 31.250 FPS (1536 SPF)
Compression mode            : Lossy
Stream size                 : 46.3 MiB (2%)
Title                       : English
Language                    : English
Service kind                : Complete Main
Default                     : No
Forced                      : No

Text #1
ID                          : 4
Format                      : UTF-8
Codec ID                    : S_TEXT/UTF8
Codec ID/Info               : UTF-8 Plain Text
Duration                    : 28 min 24 s
Bit rate                    : 95 b/s
Count of elements           : 662
Stream size                 : 19.9 KiB (0%)
Title                       : Spanish [Full]
Language                    : Spanish
Default                     : No
Forced                      : No

Text #2
ID                          : 5
Format                      : UTF-8
Codec ID                    : S_TEXT/UTF8
Codec ID/Info               : UTF-8 Plain Text
Duration                    : 28 min 16 s
Bit rate                    : 120 b/s
Count of elements           : 788
Stream size                 : 25.0 KiB (0%)
Title                       : English [SDH]
Language                    : English
Default                     : No
Forced                      : No

Text #3
ID                          : 6
Format                      : UTF-8
Codec ID                    : S_TEXT/UTF8
Codec ID/Info               : UTF-8 Plain Text
Duration                    : 27 min 38 s
Bit rate                    : 85 b/s
Count of elements           : 515
Stream size                 : 17.4 KiB (0%)
Title                       : Brazilian Portuguese [Full]
Language                    : Portuguese
Default                     : No
Forced                      : No











Fuente video: WEB-DL H264 1080p (High@L4,AVC)
Fuente audios: WEB-DL EAC3 2.0 a 224 kb/s
Fuente audios: WEB-DL EAC3 2.0 a 224 kb/s
Idiomas audios: English, Español (Latinoamérica)
Formato de subtítulos: SubRip (.srt)
Idiomas subtitulos: Español (Latinoamérica)
Fuente: AMAZON/Paramount plus






Enlaces de Mega y Google Drive solo disponibles para Miembros VIP

Compra tu Membresía VIP y apoya a Club-HD!

ATENCIÓN! Tenemos TODO el material de Club-HD disponible por Mega y Google Drive, enlaces 100% activos y online hasta la fecha

Llévate tus cuentas Mega PRO III gratis con tu membresía VIP!
Todos los posts vivos con links de Mega y Google Drive.
Todo el material de Club-HD desbloqueado y sin publicidad.

Click Aquí para más información.




Para ver este contenido oculto, debes dar click en una de las siguientes reacciones : Like Like, Love Love, Haha Haha, Wow Wow, Sad Sad, Angry Angry
Opción 2



Para ver este contenido oculto, debes dar click en una de las siguientes reacciones : Like Like, Love Love, Haha Haha, Wow Wow, Sad Sad, Angry Angry
 
Última edición por un moderador:

Usuarios Que Están Viendo Este Tema (Total: 1, Miembros: 0, Invitados: 1)

Arriba