How the Grinch Stole Christmas (2000) 1080p BDRip Dual Latino-Ingles [Subt.Esp-Ing] (Comedia)

Maestro Revolver

Well-known member
Miembro del Staff
Administrador
Registro
9 Ago 2012
Mensajes
3.569
Reacciones
59.346
Puntos
113

Reputation:









TÍTULO ORIGINAL: How the Grinch Stole Christmas
AÑO: 2000
DURACIÓN: 105 min.
PAÍS: USA
DIRECTOR: Ron Howard
GUIÓN: Jeffrey Price & Peter S. Seaman (Libro: Dr. Seuss)
REPARTO: Jim Carrey, Rachel Bailit, Jeffrey Tambor, Christine Baranski, Taylor Momsen, Bill Irwin, Molly Shannon, Jeremy Howard, T.J. Thyne, Lacey Kohl, Nadja Pionilla, Clint Howard, Bryce Dallas Howard, Jim Meskimen
PRODUCTORA: Universal Pictures presenta una producción Imagine Entertainment
GÉNERO: Comedia. Fantástico. Infantil | Navidad. Cine familiar






El Grinch es una especie de ogro verde que siempre ha vivido aisladoo en la cima de una montaña, en las afueras de Who-ville. Habituado a la soledad, lo que le destroza los nervios son los villancicos que la gente del pueblo canta en Navidad; para vengarse, decide robar los regalos de Santa Claus.






















La pelicula NO tiene ninguna marca... solo coloque mi nombre de usuario en las capturas







General
Format : Matroska
Format version : Version 4 / Version 2
File size : 7.59 GiB
Duration : 1h 44mn
Overall bit rate : 10.4 Mbps
Movie name : www.club-hd.com
Encoded date : UTC 2014-12-23 16:06:34

Video
ID : 1
Format : AVC
Format/Info : Advanced Video Codec
Format profile : High@L4.1
Format settings, CABAC : Yes
Format settings, ReFrames : 4 frames
Codec ID : V_MPEG4/ISO/AVC
Duration : 1h 44mn
Bit rate : 8 308 Kbps
Width : 1 920 pixels
Height : 1 040 pixels
Display aspect ratio : 1.85:1
Frame rate mode : Constant
Frame rate : 23.976 fps
Color space : YUV
Chroma subsampling : 4:2:0
Bit depth : 8 bits
Scan type : Progressive
Bits/(Pixel*Frame) : 0.174
Stream size : 5.94 GiB (78%)
Title : www.club-hd.com
Writing library : x264 core 78 r1310 ec46ace
Language : English
Default : Yes
Forced : No

Audio #1
ID : 2
Format : DTS
Format/Info : Digital Theater Systems
Mode : 16
Format settings, Endianness : Big
Codec ID : A_DTS
Duration : 1h 44mn
Bit rate mode : Constant
Bit rate : 768 Kbps
Channel(s) : 6 channels
Channel positions : Front: L C R, Side: L R, LFE
Sampling rate : 48.0 KHz
Bit depth : 24 bits
Compression mode : Lossy
Delay relative to video : 1s 0ms
Stream size : 577 MiB (7%)
Title : www.club-hd.com >> DTS
Language : Spanish
Default : Yes
Forced : No

Audio #2
ID : 3
Format : AC-3
Format/Info : Audio Coding 3
Mode extension : CM (complete main)
Format settings, Endianness : Big
Codec ID : A_AC3
Duration : 1h 44mn
Bit rate mode : Constant
Bit rate : 640 Kbps
Channel(s) : 6 channels
Channel positions : Front: L C R, Side: L R, LFE
Sampling rate : 48.0 KHz
Bit depth : 16 bits
Compression mode : Lossy
Delay relative to video : 1s 0ms
Stream size : 480 MiB (6%)
Title : www.club-hd.com >> AC3
Language : Spanish
Default : No
Forced : No

Audio #3
ID : 4
Format : AC-3
Format/Info : Audio Coding 3
Mode extension : CM (complete main)
Format settings, Endianness : Big
Codec ID : A_AC3
Duration : 1h 44mn
Bit rate mode : Constant
Bit rate : 640 Kbps
Channel(s) : 6 channels
Channel positions : Front: L C R, Side: L R, LFE
Sampling rate : 48.0 KHz
Bit depth : 16 bits
Compression mode : Lossy
Stream size : 480 MiB (6%)
Title : www.club-hd.com >> AC3
Language : English
Default : No
Forced : No

Text #1
ID : 5
Format : UTF-8
Codec ID : S_TEXT/UTF8
Codec ID/Info : UTF-8 Plain Text
Title : Forzados
Language : Spanish
Default : Yes
Forced : No

Text #2
ID : 6
Format : UTF-8
Codec ID : S_TEXT/UTF8
Codec ID/Info : UTF-8 Plain Text
Title : Completos
Language : Spanish
Default : No
Forced : No

Menu
00:00:00.000 : en:A Whoville Christmas
00:03:39.166 : en:Meet The Grinch
00:10:27.166 : en:Cindy Lou's Savior
00:17:50.750 : en:Christmas, Why Can't I Find You?
00:19:21.783 : en:No Place Like Home
00:23:36.083 : en:The Grinch's Story
00:33:28.083 : en:Cindy Lou's Candidate
00:36:53.583 : en:The Invitation
00:44:03.783 : en:Second Thoughts
00:47:10.950 : en:The Holiday Cheermeister
00:52:56.033 : en:The Grinch's Revenge
00:59:36.533 : en:A Wonderful, Awful Idea
01:02:36.916 : en:You're A Mean One Mr. Grinch
01:07:01.333 : en:Grinchy Claus
01:14:33.166 : en:To Take Every Present
01:18:08.666 : en:Christmas Destroyed
01:21:57.116 : en:A Change Of Heart
01:27:13.833 : en:To Save Cindy Lou
01:30:17.200 : en:Merry Christmas, Mr. Grinch
01:37:47.583 : en:End Titles









Contraseña: www.club-hd.com













Enlaces de Mega y Fireload solo disponibles para Miembros VIP

Compra tu Membresía VIP y apoya a Club-HD!

ATENCIÓN! Tenemos TODO el material de Club-HD disponible por Mega y Fireload, enlaces 100% activos y online hasta la fecha

Llévate tus cuentas Mega PRO II gratis con tu membresía VIP!
Todos los posts vivos con links de Mega y Fireload.
Todo el material de Club-HD desbloqueado y sin publicidad.

Click Aquí para más información.





Enlaces de Mega y Fireload solo disponibles para Miembros VIP

Compra tu Membresía VIP y apoya a Club-HD!

ATENCIÓN! Tenemos TODO el material de Club-HD disponible por Mega y Fireload, enlaces 100% activos y online hasta la fecha

Llévate tus cuentas Mega PRO II gratis con tu membresía VIP!
Todos los posts vivos con links de Mega y Fireload.
Todo el material de Club-HD desbloqueado y sin publicidad.

Click Aquí para más información.



Enlaces de Mega y Fireload solo disponibles para Miembros VIP

Compra tu Membresía VIP y apoya a Club-HD!

ATENCIÓN! Tenemos TODO el material de Club-HD disponible por Mega y Fireload, enlaces 100% activos y online hasta la fecha

Llévate tus cuentas Mega PRO II gratis con tu membresía VIP!
Todos los posts vivos con links de Mega y Fireload.
Todo el material de Club-HD desbloqueado y sin publicidad.

Click Aquí para más información.



Para ver este contenido oculto, debes dar click en una de las siguientes reacciones : Like Like, Love Love, Haha Haha, Wow Wow, Sad Sad, Angry Angry



Para ver este contenido oculto, debes dar click en una de las siguientes reacciones : Like Like, Love Love, Haha Haha, Wow Wow, Sad Sad, Angry Angry



 
Última edición:

Lcreme

Well-known member
Registro
27 Ago 2012
Mensajes
2.092
Reacciones
105
Puntos
63

Reputation:

Gracias ojala esten bien los links .....
 

Rick_Anderson

New member
Registro
12 Sep 2012
Mensajes
1
Reacciones
0
Puntos
0
Edad
50

Reputation:

Gracias por el aporte. Espero que los links no esten caidos porque no la encuentro por ningun lado... Gracias
 

Usuarios Que Están Viendo Este Tema (Total: 1, Miembros: 0, Invitados: 1)

Arriba