Hugo (2011) m-1080p Dual Latino-Ingles [Subt.Esp-Ing] (Aventura)

Maestro Revolver

Well-known member
Miembro del Staff
Administrador
Registro
9 Ago 2012
Mensajes
3.569
Reacciones
59.346
Puntos
113

Reputation:


Película Resubida







TÍTULO ORIGINAL: Hugo (Hugo Cabret)
AÑO: 2011
DURACIÓN: 127 min.
PAÍS: USA
DIRECTOR: Martin Scorsese
GUIÓN: John Logan (Libro: Brian Selznick)
REPARTO: Asa Butterfield, Chloe Moretz, Ben Kingsley, Sacha Baron Cohen, Jude Law, Emily Mortimer, Michael Stuhlbarg, Ray Winstone, Christopher Lee, Richard Griffiths, Helen McCrory, Frances de la Tour
PRODUCTORA: GK Films / Infinitum Nihil / Warner Bros. Pictures
GÉNERO: Aventuras. Intriga | Cine familiar. Años 30. 3-D. Robots

PREMIOS 2011: Oscars: 11 nominaciones, incluyendo mejor película, director y guión adaptado
2011: National Board of Review: Mejor película y mejor director
2011: Globos de Oro: Mejor director. 3 nominaciones, incluyendo Mejor película dramática
2011: Premios BAFTA: Mejor diseño de prod. y sonido. 9 nom, incluyendo mejor director
2011: Critics Choice Awards: Mejor dirección artística. 11 nominaciones
2011: Satellite Awards: Mejores efectos visuales. 5 nomin., incluyendo mejor película
2011: Asociación de Críticos de Los Angeles: Mejor diseño de producción.






París, años 30. Hugo (Asa Butterfield) es un niño huérfano que vive escondido en una estación y se ocupa de arreglar relojes. Se verá envuelto en una misteriosa aventura cuando intente reparar un robot estropeado. Un día conoce a una chica (Chloë Moretz) que tiene la llave que podría resolver el misterio del robot... El guión adapta un libro infantil que ganó el premio Randolph Caldecott en 2008.






















La pelicula NO tiene ninguna marca... solo coloque mi nombre de usuario en las capturas






Código:
General
Format                                   : Matroska
Format version                           : Version 2
File size                                : 4.92 GiB
Duration                                 : 2h 6mn
Overall bit rate                         : 5 571 Kbps
Movie name                               : www.club-hd.com
Encoded date                             : UTC 2013-09-07 16:15:54
Writing application                      : mkvmerge v5.7.0 ('The Whirlwind') built on Jul  8 2012 20:08:51
Writing library                          : libebml v1.2.3 + libmatroska v1.3.0

Video
ID                                       : 1
Format                                   : AVC
Format/Info                              : Advanced Video Codec
Format profile                           : Main@L4.0
Format settings, CABAC                   : Yes
Format settings, ReFrames                : 4 frames
Codec ID                                 : V_MPEG4/ISO/AVC
Duration                                 : 2h 6mn
Bit rate                                 : 4 180 Kbps
Nominal bit rate                         : 4 500 Kbps
Width                                    : 1 920 pixels
Height                                   : 1 080 pixels
Display aspect ratio                     : 16:9
Frame rate mode                          : Constant
Frame rate                               : 23.976 fps
Color space                              : YUV
Chroma subsampling                       : 4:2:0
Bit depth                                : 8 bits
Scan type                                : Progressive
Bits/(Pixel*Frame)                       : 0.084
Stream size                              : 3.69 GiB (75%)
Title                                    : www.club-hd.com
Writing library                          : x264 core 112
Language                                 : English
Default                                  : Yes
Forced                                   : No
Color primaries                          : BT.709
Transfer characteristics                 : BT.709
Matrix coefficients                      : BT.709

Audio #1
ID                                       : 2
Format                                   : AC-3
Format/Info                              : Audio Coding 3
Mode extension                           : CM (complete main)
Format settings, Endianness              : Big
Codec ID                                 : A_AC3
Duration                                 : 2h 6mn
Bit rate mode                            : Constant
Bit rate                                 : 640 Kbps
Channel(s)                               : 6 channels
Channel positions                        : Front: L C R, Side: L R, LFE
Sampling rate                            : 48.0 KHz
Bit depth                                : 16 bits
Compression mode                         : Lossy
Stream size                              : 578 MiB (11%)
Title                                    : www.club-hd.com > Latino
Language                                 : Spanish
Default                                  : Yes
Forced                                   : No

Audio #2
ID                                       : 3
Format                                   : AC-3
Format/Info                              : Audio Coding 3
Mode extension                           : CM (complete main)
Format settings, Endianness              : Big
Codec ID                                 : A_AC3
Duration                                 : 2h 6mn
Bit rate mode                            : Constant
Bit rate                                 : 640 Kbps
Channel(s)                               : 6 channels
Channel positions                        : Front: L C R, Side: L R, LFE
Sampling rate                            : 48.0 KHz
Bit depth                                : 16 bits
Compression mode                         : Lossy
Stream size                              : 578 MiB (11%)
Title                                    : www.club-hd.com > Inglés
Language                                 : English
Default                                  : No
Forced                                   : No

Text
ID                                       : 4
Format                                   : UTF-8
Codec ID                                 : S_TEXT/UTF8
Codec ID/Info                            : UTF-8 Plain Text
Language                                 : Spanish
Default                                  : No
Forced                                   : No

Menu
00:00:00.000                             : en:Chapter 1
00:09:35.616                             : en:Chapter 2
00:17:20.664                             : en:Chapter 3
00:23:32.911                             : en:Chapter 4
00:30:34.666                             : en:Chapter 5
00:38:26.345                             : en:Chapter 6
00:47:36.353                             : en:Chapter 7
00:55:37.542                             : en:Chapter 8
01:03:43.694                             : en:Chapter 9
01:12:46.862                             : en:Chapter 10
01:19:59.252                             : en:Chapter 11
01:27:10.099                             : en:Chapter 12
01:33:03.494                             : en:Chapter 13
01:42:41.405                             : en:Chapter 14
01:53:47.904                             : en:Chapter 15
01:59:58.524                             : en:Chapter 16










Enlaces de Mega y Fireload solo disponibles para Miembros VIP

Compra tu Membresía VIP y apoya a Club-HD!

ATENCIÓN! Tenemos TODO el material de Club-HD disponible por Mega y Fireload, enlaces 100% activos y online hasta la fecha

Llévate tus cuentas Mega PRO II gratis con tu membresía VIP!
Todos los posts vivos con links de Mega y Fireload.
Todo el material de Club-HD desbloqueado y sin publicidad.

Click Aquí para más información.




Enlaces de Mega y Fireload solo disponibles para Miembros VIP

Compra tu Membresía VIP y apoya a Club-HD!

ATENCIÓN! Tenemos TODO el material de Club-HD disponible por Mega y Fireload, enlaces 100% activos y online hasta la fecha

Llévate tus cuentas Mega PRO II gratis con tu membresía VIP!
Todos los posts vivos con links de Mega y Fireload.
Todo el material de Club-HD desbloqueado y sin publicidad.

Click Aquí para más información.


Para ver este contenido oculto, debes dar click en una de las siguientes reacciones : Like Like, Love Love, Haha Haha, Wow Wow, Sad Sad, Angry Angry

 
Última edición:

Usuarios Que Están Viendo Este Tema (Total: 1, Miembros: 0, Invitados: 1)

Arriba