Hungarian Rhapsody: Queen Live In Budapest (1986) 720p BDRip [AC3 5.1 | DTS] [Subt. Esp](Concierto. Documental)

Maestro Revolver

Well-known member
Miembro del Staff
Administrador
Registro
9 Ago 2012
Mensajes
3.569
Reacciones
59.350
Puntos
113

Reputation:









Captura el memorable concierto que la banda de Rock inglesa Queen brindó en Budapest en 1986, ante 80.000 personas. El film muestra, a modo de introducción, un documental con imágenes de los eventos previos al concierto, los ensayos y entrevistas con la banda que lideraba Freddie Mercury.

-Información completa:

Como parte del Magic Tour, el último en ser interpretado por Freddie Mercury, Queen incluyó por primera vez a Hungría en el calendario de la gira. Tres años antes de la caída del Muro de Berlín, este fue el mayor concierto organizado en el Népstadion de Budapest, y el primer Western Rock Concert en un estadio detrás del Telón de Acero que dividió a Europa durante años.
Este inolvidable show fue de tal importancia que las autoridades húngaras y de la industria cinematográfica del país se reunieron para grabarlo para la posteridad.
La película que ha sido filmada ante la presencia de 80.000 aficionados y que cuenta con exitosas canciones como Bohemian Rhapsody, Crazy Little Thing Called Love, I Want To Break Free y We Are The Champions, ha sido remasterizada digitalmente para la pantalla grande y con un documental de 25 minutos como introducción con imágenes de los eventos previos al concierto de Budapest, ensayos, entrevistas con la banda y viajes durante el Magic Tour, algunas de ellas jamás vistas. Esta fascinante introducción ha sido especialmente creada para el lanzamiento en cine. Una oportunidad única para revivir la magia de la inigualable banda británica con el agregado de poder ver parte de su intimidad durante el Magic Tour que marcó la historia de la música.


Track List:

01. One Vision
02. Tie Your Mother Down
03. En el regazo de los dioses. . . Revisited
04. Seven Seas of Rhye
05. Tear It Up
06. A Kind of Magic
07. Under Pressure
08. ¿Quién quiere vivir para siempre
09. I Want To Break Free
10. Guitar Solo
11. Ahora estoy aquí
12. Love of My Life
13. Tavaszi Szet Vizet Araszt
14. ¿Es este el mundo que creamos. . .?
15. Tutti Frutti
16. Bohemian Rhapsody
17. Hammer to Fall
18. Crazy Little Thing Called Love
19. Radio Ga Ga
20. We Will Rock You
21. Friends Will Be Friends
22. We Are the Champions
23. God Save the Queen





























Código:
General
Format                                   : Matroska
Format version                           : Version 2
File size                                : 5.94 GiB
Duration                                 : 1h 31mn
Overall bit rate                         : 9 332 Kbps
Movie name                               : www.club-hd.com
Encoded date                             : UTC 2013-01-20 06:15:59
Writing application                      : mkvmerge v5.7.0 ('The Whirlwind') built on Jul  8 2012 20:08:51
Writing library                          : libebml v1.2.3 + libmatroska v1.3.0

Video
ID                                       : 1
Format                                   : AVC
Format/Info                              : Advanced Video Codec
Format profile                           : High@L4.1
Format settings, CABAC                   : Yes
Format settings, ReFrames                : 9 frames
Codec ID                                 : V_MPEG4/ISO/AVC
Duration                                 : 1h 31mn
Bit rate                                 : 7 200 Kbps
Width                                    : 1 280 pixels
Height                                   : 720 pixels
Display aspect ratio                     : 16:9
Frame rate mode                          : Constant
Frame rate                               : 24.000 fps
Color space                              : YUV
Chroma subsampling                       : 4:2:0
Bit depth                                : 8 bits
Scan type                                : Progressive
Bits/(Pixel*Frame)                       : 0.326
Stream size                              : 4.46 GiB (75%)
Title                                    : www.club-hd.com
Writing library                          : x264 core 129 r2230 1cffe9f
Language                                 : English
Default                                  : Yes
Forced                                   : No

Audio #1
ID                                       : 2
Format                                   : AC-3
Format/Info                              : Audio Coding 3
Mode extension                           : CM (complete main)
Format settings, Endianness              : Big
Codec ID                                 : A_AC3
Duration                                 : 1h 31mn
Bit rate mode                            : Constant
Bit rate                                 : 640 Kbps
Channel(s)                               : 6 channels
Channel positions                        : Front: L C R, Side: L R, LFE
Sampling rate                            : 48.0 KHz
Bit depth                                : 16 bits
Compression mode                         : Lossy
Stream size                              : 417 MiB (7%)
Title                                    : www.club-hd.com  >>  Inglés AC3 5.1
Language                                 : English
Default                                  : Yes
Forced                                   : No

Audio #2
ID                                       : 3
Format                                   : DTS
Format/Info                              : Digital Theater Systems
Mode                                     : 16
Format settings, Endianness              : Big
Codec ID                                 : A_DTS
Duration                                 : 1h 31mn
Bit rate mode                            : Constant
Bit rate                                 : 1 509 Kbps
Channel(s)                               : 6 channels
Channel positions                        : Front: L C R, Side: L R, LFE
Sampling rate                            : 48.0 KHz
Bit depth                                : 24 bits
Compression mode                         : Lossy
Stream size                              : 984 MiB (16%)
Title                                    : www.club-hd.com  >>  Inglés DTS 5.1
Language                                 : English
Default                                  : No
Forced                                   : No

Text
ID                                       : 4
Format                                   : UTF-8
Codec ID                                 : S_TEXT/UTF8
Codec ID/Info                            : UTF-8 Plain Text
Language                                 : Spanish [B][COLOR=#008000](Español de España) [/COLOR][/B]
Default                                  : Yes
Forced                                   : No

Menu
00:00:00.000                             : en:00:00:00.000
00:00:58.750                             : en:00:00:58.750
00:06:33.875                             : en:00:06:33.875
00:08:31.000                             : en:00:08:31.000
00:11:05.000                             : en:00:11:05.000
00:12:46.083                             : en:00:12:46.083
00:14:35.000                             : en:00:14:35.000
00:21:03.792                             : en:00:21:03.792
00:24:31.000                             : en:00:24:31.000
00:28:07.000                             : en:00:28:07.000
00:32:09.000                             : en:00:32:09.000
00:35:11.000                             : en:00:35:11.000
00:38:55.958                             : en:00:38:55.958
00:41:05.417                             : en:00:41:05.417
00:46:55.833                             : en:00:46:55.833
00:49:40.958                             : en:00:49:40.958
00:51:41.125                             : en:00:51:41.125
00:54:09.000                             : en:00:54:09.000
00:55:00.750                             : en:00:55:00.750
00:57:49.875                             : en:00:57:49.875
00:59:24.000                             : en:00:59:24.000
01:04:43.083                             : en:01:04:43.083
01:08:58.708                             : en:01:08:58.708
01:12:40.500                             : en:01:12:40.500
01:13:53.958                             : en:01:13:53.958
01:20:01.000                             : en:01:20:01.000
01:23:03.625                             : en:01:23:03.625
01:25:04.500                             : en:01:25:04.500
01:28:57.750                             : en:01:28:57.750









Enlaces de Mega y Fireload solo disponibles para Miembros VIP

Compra tu Membresía VIP y apoya a Club-HD!

ATENCIÓN! Tenemos TODO el material de Club-HD disponible por Mega y Fireload, enlaces 100% activos y online hasta la fecha

Llévate tus cuentas Mega PRO II gratis con tu membresía VIP!
Todos los posts vivos con links de Mega y Fireload.
Todo el material de Club-HD desbloqueado y sin publicidad.

Click Aquí para más información.




Enlaces de Mega y Fireload solo disponibles para Miembros VIP

Compra tu Membresía VIP y apoya a Club-HD!

ATENCIÓN! Tenemos TODO el material de Club-HD disponible por Mega y Fireload, enlaces 100% activos y online hasta la fecha

Llévate tus cuentas Mega PRO II gratis con tu membresía VIP!
Todos los posts vivos con links de Mega y Fireload.
Todo el material de Club-HD desbloqueado y sin publicidad.

Click Aquí para más información.



Para ver este contenido oculto, debes dar click en una de las siguientes reacciones : Like Like, Love Love, Haha Haha, Wow Wow, Sad Sad, Angry Angry
 
Última edición:

sinpk2

New member
Registro
29 Ago 2012
Mensajes
360
Reacciones
17
Puntos
0

Reputation:

genial rovelver...... me digo...... revolver ya no me puede sorprender mas..... y uffff siempre tengo ke tragar mis palabras...gracias
 

Usuarios Que Están Viendo Este Tema (Total: 1, Miembros: 0, Invitados: 1)

Arriba