• Buenos dias amigos del club. Les queremos avisar que ya recuperamos el acceso a las webs de las Membresías VIP y del Paste. Asi que ya pueden comprar sus membresías y descargar todos los estrenos nuevamente.

I Saw The Devil (2010) m-720p Dual Coreano-Español [Subt. Esp] (Terror)

Maestro Revolver

Administrador
Registro
9 Ago 2012
Mensajes
3.157
Reacciones (ptje)
55.317


I-Saw-The-Devil.jpg




FichaTecnica.jpg


TÍTULO ORIGINAL: Akmareul boattda (I Saw The Devil)
AÑO: 2010
DURACIÓN: 144 min.
PAÍS: Corea del Sur
DIRECTOR: Kim Ji-woon
GUIÓN: Park Hoon-jung
REPARTO: Lee Byung-hun, Choi Min-sik, Jeon Kuk-hwan, Oh San-ha, Kim Yun-seo, Choi Moo-sung, Kim In-seo
PRODUCTORA: Kim Hyun Woo Peppermint & Company / Syz Entertainment
GÉNERO: Terror | Policíaco. Crimen. Asesinos en serie. Gore
imdb-logo.png
: http://www.imdb.com/title/tt1588170/




Sinopsis.jpg


Kyung-chul es un psicópata peligroso que mata por placer y que ha cometido varios asesinatos con unos métodos diabólicos difíciles de imaginar. Sus víctimas son chicas jóvenes. La policía lleva tiempo intentando capturarlo. Un día, aparece asesinada la hija de un jefe de policía retirado. El novio de la chica, un agente secreto, jura vengarse.




Trailer.jpg






Capturas.jpg


1.jpg


2.jpg


3.jpg


4.jpg


5.jpg


6.jpg


La pelicula NO tiene ninguna marca... solo colocamos el nombre de esta web en las capturas




MediaInfo.jpg


Código:
General
Format                                   : Matroska
Format version                           : Version 2
File size                                : 3.58 GiB
Duration                                 : 2h 21mn
Overall bit rate                         : 3 616 Kbps
Movie name                               : www.club-hd.com
Encoded date                             : UTC 2013-03-05 23:48:49
Writing application                      : mkvmerge v5.7.0 ('The Whirlwind') built on Jul  8 2012 20:08:51
Writing library                          : libebml v1.2.3 + libmatroska v1.3.0

Video
ID                                       : 1
Format                                   : AVC
Format/Info                              : Advanced Video Codec
Format profile                           : [email protected]
Format settings, CABAC                   : Yes
Format settings, ReFrames                : 8 frames
Codec ID                                 : V_MPEG4/ISO/AVC
Duration                                 : 2h 21mn
Bit rate                                 : 2 590 Kbps
Width                                    : 1 280 pixels
Height                                   : 692 pixels
Display aspect ratio                     : 1.85:1
Frame rate mode                          : Constant
Frame rate                               : 24.000 fps
Color space                              : YUV
Chroma subsampling                       : 4:2:0
Bit depth                                : 8 bits
Scan type                                : Progressive
Bits/(Pixel*Frame)                       : 0.122
Stream size                              : 2.50 GiB (70%)
Title                                    : www.club-hd.com
Writing library                          : x264 core 115 r1947 b5a8ad7
Language                                 : Korean
Default                                  : Yes
Forced                                   : No

Audio #1
ID                                       : 2
Format                                   : AC-3
Format/Info                              : Audio Coding 3
Mode extension                           : CM (complete main)
Format settings, Endianness              : Big
Codec ID                                 : A_AC3
Duration                                 : 2h 21mn
Bit rate mode                            : Constant
Bit rate                                 : 640 Kbps
Channel(s)                               : 6 channels
Channel positions                        : Front: L C R, Side: L R, LFE
Sampling rate                            : 48.0 KHz
Bit depth                                : 16 bits
Compression mode                         : Lossy
Stream size                              : 650 MiB (18%)
Title                                    : www.club-hd.com  >>  Coreano
Language                                 : Korean
Default                                  : Yes
Forced                                   : No

Audio #2
ID                                       : 3
Format                                   : AC-3
Format/Info                              : Audio Coding 3
Mode extension                           : CM (complete main)
Format settings, Endianness              : Big
Codec ID                                 : A_AC3
Duration                                 : 2h 21mn
Bit rate mode                            : Constant
Bit rate                                 : 384 Kbps
Channel(s)                               : 6 channels
Channel positions                        : Front: L C R, Side: L R, LFE
Sampling rate                            : 48.0 KHz
Bit depth                                : 16 bits
Compression mode                         : Lossy
Delay relative to video                  : 26ms
Stream size                              : 390 MiB (11%)
Title                                    : www.club-hd.com  >>  Español (España)
Language                                 : Spanish
Default                                  : No
Forced                                   : No

Text
ID                                       : 4
Format                                   : UTF-8
Codec ID                                 : S_TEXT/UTF8
Codec ID/Info                            : UTF-8 Plain Text
Language                                 : Spanish
Default                                  : Yes
Forced                                   : No

Menu
00:00:00.000                             : en:00:00:00.000
00:14:06.375                             : en:00:14:06.375
00:25:06.000                             : en:00:25:06.000
00:36:16.250                             : en:00:36:16.250
00:45:16.000                             : en:00:45:16.000
00:55:53.750                             : en:00:55:53.750
01:05:26.167                             : en:01:05:26.167
01:18:08.042                             : en:01:18:08.042
01:31:30.125                             : en:01:31:30.125
01:42:21.667                             : en:01:42:21.667
01:54:20.292                             : en:01:54:20.292
02:06:21.833                             : en:02:06:21.833




Descarga.jpg




google-drive-vip.png


Tenemos TODO el material de Club-HD disponible por Mega, enlaces 100% activos y online hasta la fecha

Llévate tus cuentas Mega PRO III gratis con tu membresía VIP!
Todos los posts vivos con links de Mega.
Todo el material de Club-HD desbloqueado y sin publicidad.

Obtén más información sobre nuestras Membresías VIP




MEGA.jpg

Tenemos TODO el material de Club-HD disponible por Mega, enlaces 100% activos y online hasta la fecha

Llévate tus cuentas Mega PRO III gratis con tu membresía VIP!
Todos los posts vivos con links de Mega.
Todo el material de Club-HD desbloqueado y sin publicidad.

Obtén más información sobre nuestras Membresías VIP



UPLOADED_BANNER.png

Para ver este contenido oculto, debes dar click en el botón"Like", o cualquiera de las otras reacciones:

Me Gusta Me Gusta, Me Encanta Me Encanta, Jaja Jaja, Wow Wow, Triste Triste, Molesto Molesto

 
Última edición por un moderador:
Weno... Parece que promete esta movie!! Supongo que la veré el finde, porque tengo varias por descargar xDxD. Saludos Revolver! guit4r_3
 
Este tipo de películas le encantan a Claudia Muchas Gracias R21!.:aplausos::aplausos::aplausos:

Grande Master.:dplgar::dplgar:
 
Ahora si Master, no podia cargar el post para agradecerte como se debe, aun me sorprende y casi no puedo creeer ver este peliculon posteado, MUCHISIMAS GRACIAS, POR ESTE Y CADA UNO DE LOS QUE DIA A DIA NOS OBSEQUIAS, servire a esta amada casa hasta que mis dedos sigan moviendose....EXCELENCIA+CALIDAD+COMPROMISO=LA MEJOR PAGINA DE DESCARGAS HD-BLU-RAY!!!!!!!!Pl4yb0y
 
A la maroska , que sorprendente pelicula posteaste , EXCELENTE . Gracias bestia !!!!:dplgar:LXR_2
 
Una película del cine oriental para variar un poco...gracias Revolver!

Saludos amigo! victory
 
Volver