Indiana Jones and the Temple of Doom (1984) 1080p BDRip Dual Latino-Ingles [Subt. Esp-Ing] (Aventura. Acción)

Maestro Revolver

Administrador
Registro
9 Ago 2012
Mensajes
3.157
Reacciones (ptje)
55.042
Aporte recuperado gracias a nuestro amigo Dynky

Indiana-jones-2-1080p.jpg




FICHA_TECNICA.png


TÍTULO ORIGINAL: Indiana Jones and the Temple of Doom
AÑO: 1984
DURACIÓN: 118 min.
PAÍS: USA
DIRECTOR: Steven Spielberg
GUIÓN: Gloria Katz & William Huyck
REPARTO: Harrison Ford, Kate Capshaw, Jonathan Ke Quan, Amrish Puri, Philip Stone, Roshan Seth, David Yip, Ric Young
PRODUCTORA: Paramount Pictures
GÉNERO: Aventuras. Acción | Precuela. Años 30
imdb-logo.png
http://www.imdb.com/title/tt0087469/

PREMIOS: 1984: Premio Oscar: Mejores Efectos Visuales. Nominada a Mejor música.
1984: Premio BAFTA: Mejores Efectos Visuales. Nominada a Fotografía, Montaje y Sonido.



SINOPSIS.png


1935. Shanghai. El intrépido arqueólogo Indiana Jones, tras meterse en jaleos en un local nocturno, consigue escapar junto a una bella cantante y su joven acompañante. Tras un accidentado vuelo, los tres acaban en la India, donde intentarán ayudar a los habitantes de un pequeño poblado, cuyos niños han sido raptados.




TRAILER.png






CAPTURAS.png


1.jpg


2.jpg


3.jpg


4.jpg


5.jpg


6.jpg


7.jpg


8.jpg


La pelicula NO tiene ninguna marca... solo colocamos el nombre de esta web en las capturas




DATOS_TECNICOS.png


Código:
Format                                   : Matroska
Format version                           : Version 2
File size                                : 9.99 GiB
Duration                                 : 1h 58mn
Overall bit rate                         : 12.1 Mbps
Movie name                               : www.club-hd.com
Encoded date                             : UTC 2012-09-16 05:42:22
Writing application                      : mkvmerge v3.4.0 ('Rapunzel') built on May 15 2010 09:38:20
Writing library                          : libebml v0.8.0 + libmatroska v0.9.0

Video
ID                                       : 1
Format                                   : AVC
Format/Info                              : Advanced Video Codec
Format profile                           : [email protected]
Format settings, CABAC                   : Yes
Format settings, ReFrames                : 5 frames
Codec ID                                 : V_MPEG4/ISO/AVC
Duration                                 : 1h 58mn
Bit rate                                 : 9 059 Kbps
Width                                    : 1 920 pixels
Height                                   : 816 pixels
Display aspect ratio                     : 2.35:1
Frame rate mode                          : Constant
Frame rate                               : 23.976 fps
Color space                              : YUV
Chroma subsampling                       : 4:2:0
Bit depth                                : 8 bits
Scan type                                : Progressive
Bits/(Pixel*Frame)                       : 0.241
Stream size                              : 7.30 GiB (73%)
Title                                    : www.club-hd.com
Writing library                          : x264 core 125 r2208 d9d2288
Language                                 : English
Default                                  : Yes
Forced                                   : No

Audio #1
ID                                       : 2
Format                                   : AC-3
Format/Info                              : Audio Coding 3
Format profile                           : Dolby Digital
Mode extension                           : CM (complete main)
Format settings, Endianness              : Big
Codec ID                                 : A_AC3
Duration                                 : 1h 58mn
Bit rate mode                            : Constant
Bit rate                                 : 224 Kbps
Channel(s)                               : 2 channels
Channel positions                        : Front: L R
Sampling rate                            : 48.0 KHz
Bit depth                                : 16 bits
Compression mode                         : Lossy
Stream size                              : 190 MiB (2%)
Title                                    : www.club-hd.com  >>  Latino [Audio Original]
Language                                 : Spanish
Default                                  : Yes
Forced                                   : No

Audio #2
ID                                       : 3
Format                                   : AC-3
Format/Info                              : Audio Coding 3
Mode extension                           : CM (complete main)
Format settings, Endianness              : Big
Codec ID                                 : A_AC3
Duration                                 : 1h 58mn
Bit rate mode                            : Constant
Bit rate                                 : 640 Kbps
Channel(s)                               : 6 channels
Channel positions                        : Front: L C R, Side: L R, LFE
Sampling rate                            : 48.0 KHz
Bit depth                                : 16 bits
Compression mode                         : Lossy
Stream size                              : 542 MiB (5%)
Title                                    : www.club-hd.com  >>  Latino [Audio Nuevo Doblaje]
Language                                 : Spanish
Default                                  : No
Forced                                   : No

Audio #3
ID                                       : 4
Format                                   : AC-3
Format/Info                              : Audio Coding 3
Mode extension                           : CM (complete main)
Format settings, Endianness              : Big
Codec ID                                 : A_AC3
Duration                                 : 1h 58mn
Bit rate mode                            : Constant
Bit rate                                 : 640 Kbps
Channel(s)                               : 6 channels
Channel positions                        : Front: L C R, Side: L R, LFE
Sampling rate                            : 48.0 KHz
Bit depth                                : 16 bits
Compression mode                         : Lossy
Stream size                              : 542 MiB (5%)
Title                                    : www.club-hd.com  >>  Ingles AC3
Language                                 : English
Default                                  : No
Forced                                   : No

Audio #4
ID                                       : 5
Format                                   : DTS
Format/Info                              : Digital Theater Systems
Codec ID                                 : A_DTS
Duration                                 : 1h 58mn
Bit rate mode                            : Constant
Bit rate                                 : 1 510 Kbps
Channel(s)                               : 6 channels
Channel positions                        : Front: L C R, Side: L R, LFE
Sampling rate                            : 48.0 KHz
Bit depth                                : 24 bits
Compression mode                         : Lossy
Delay relative to video                  : 11ms
Stream size                              : 1.25 GiB (13%)
Title                                    : www.club-hd.com  >>  Ingles DTS
Language                                 : English
Default                                  : No
Forced                                   : No

Text #1
ID                                       : 6
Format                                   : UTF-8
Codec ID                                 : S_TEXT/UTF8
Codec ID/Info                            : UTF-8 Plain Text
Language                                 : Spanish
Default                                  : No
Forced                                   : No

Text #2
ID                                       : 7
Format                                   : UTF-8
Codec ID                                 : S_TEXT/UTF8
Codec ID/Info                            : UTF-8 Plain Text
Language                                 : English
Default                                  : No
Forced                                   : No

Menu
00:00:00.000                             : en:00:00:00.000
00:02:54.049                             : en:00:02:54.049
00:08:07.278                             : en:00:08:07.278
00:10:52.735                             : en:00:10:52.735
00:12:51.479                             : en:00:12:51.479
00:16:00.543                             : en:00:16:00.543
00:19:50.189                             : en:00:19:50.189
00:26:28.670                             : en:00:26:28.670
00:28:42.971                             : en:00:28:42.971
00:31:49.032                             : en:00:31:49.032
00:35:21.161                             : en:00:35:21.161
00:38:57.001                             : en:00:38:57.001
00:41:20.520                             : en:00:41:20.520
00:46:24.323                             : en:00:46:24.323
00:50:42.957                             : en:00:50:42.957
00:52:06.582                             : en:00:52:06.582
00:56:08.365                             : en:00:56:08.365
00:59:57.219                             : en:00:59:57.219
01:05:57.078                             : en:01:05:57.078
01:09:52.021                             : en:01:09:52.021
01:13:08.551                             : en:01:13:08.551
01:17:08.290                             : en:01:17:08.290
01:24:01.954                             : en:01:24:01.954
01:27:33.331                             : en:01:27:33.331
01:29:21.106                             : en:01:29:21.106
01:35:03.448                             : en:01:35:03.448
01:39:23.875                             : en:01:39:23.875
01:41:51.272                             : en:01:41:51.272
01:43:38.796                             : en:01:43:38.796
01:49:57.966                             : en:01:49:57.966
01:53:10.909                             : en:01:53:10.909



Aporte Exclusivo de Club-HD




CONTRASE%C3%91A-FINAL.png


Código:
www.club-hd.com



Descarga.png



MEGA.jpg

Tenemos TODO el material de Club-HD disponible por Mega, enlaces 100% activos y online hasta la fecha

Llévate tus cuentas Mega PRO III gratis con tu membresía VIP!
Todos los posts vivos con links de Mega.
Todo el material de Club-HD desbloqueado y sin publicidad.

Obtén más información sobre nuestras Membresías VIP


UPLOADED_BANNER.png

Para ver este contenido oculto, debes dar click en el botón"Like", o cualquiera de las otras reacciones:

Me Gusta Me Gusta, Me Encanta Me Encanta, Jaja Jaja, Wow Wow, Triste Triste, Molesto Molesto
 
Última edición por un moderador:
Eh! Aquí esta el otro clásico y sigo atrasado. :llrnd2:

pero hay voy paso a paso GRACIAS MAESTRO. :aplausos: :dplgar:
 
Gracias, a continuar con la saga, aunque no baje la primera todavia, va por la mitad, se agrega una mas a la lista, saludos
 
Volver