Inside Man (2006) 720p BDRip Dual Latino-Inglés [Subt. Esp] (Intriga. Thriller)

Maestro Revolver

Administrador
Registro
9 Ago 2012
Mensajes
3.157
Reacciones (ptje)
55.205


Inside-Man.jpg




FichaTecnica.jpg


TÍTULO ORIGINAL: Inside Man
AÑO: 2006
DURACIÓN: 129 min.
PAÍS: USA
DIRECTOR: Spike Lee
GUIÓN: Russell Gewirtz
REPARTO: Denzel Washington, Clive Owen, Jodie Foster, Willem Dafoe, Christopher Plummer, Chiwetel Ejiofor, Carlos Andrés Gómez, Kim Director, James Ransone, Bernie Rachelle, Peter Gerety, Victor Colicchio, Cassandra Freeman, Peter Frechette
PRODUCTORA: Universal Pictures / Imagine Entertainment
GÉNERO: Intriga. Thriller | Robos & Atracos. Secuestros / Desapariciones
imdb-logo.png
: http://www.imdb.com/title/tt0454848/

Premios: 2006: American Film Institute (AFI): Top 10 - Mejores películas del año




Sinopsis.jpg


Duelo entre un duro policía (Denzel Washington) y un inteligente atracador (Clive Owen) durante un tenso secuestro con rehenes en un banco de Manhattan. De repente, aparece una tercera persona que ha sido contratada por el influyente propietario del banco (Christopher Plummer). Se trata de Madaline (Jodie Foster), una poderosa bróker que tiene una agenda secreta.




Trailer.jpg






Capturas.jpg


1.jpg


2.jpg


3.jpg


4.jpg


5.jpg


6.jpg


La pelicula NO tiene ninguna marca... solo colocamos el nombre de esta web en las capturas




MediaInfo.jpg


Código:
General
Format                                   : Matroska
Format version                           : Version 2
File size                                : 3.26 GiB
Duration                                 : 2h 8mn
Overall bit rate                         : 3 630 Kbps
Movie name                               : www.club-hd.com
Encoded date                             : UTC 2014-01-19 22:34:35
Writing application                      : mkvmerge v5.7.0 ('The Whirlwind') built on Jul  8 2012 20:08:51
Writing library                          : libebml v1.2.3 + libmatroska v1.3.0

Video
ID                                       : 1
Format                                   : AVC
Format/Info                              : Advanced Video Codec
Format profile                           : [email protected]
Format settings, CABAC                   : Yes
Format settings, ReFrames                : 5 frames
Muxing mode                              : Header stripping
Codec ID                                 : V_MPEG4/ISO/AVC
Duration                                 : 2h 8mn
Bit rate                                 : 2 470 Kbps
Width                                    : 1 280 pixels
Height                                   : 544 pixels
Display aspect ratio                     : 2.35:1
Frame rate mode                          : Constant
Frame rate                               : 23.976 fps
Color space                              : YUV
Chroma subsampling                       : 4:2:0
Bit depth                                : 8 bits
Scan type                                : Progressive
Bits/(Pixel*Frame)                       : 0.148
Stream size                              : 2.22 GiB (68%)
Title                                    : www.club-hd.com
Writing library                          : x264 core 130 r2273 b3065e6
Language                                 : English
Default                                  : Yes
Forced                                   : No

Audio #1
ID                                       : 2
Format                                   : AC-3
Format/Info                              : Audio Coding 3
Mode extension                           : CM (complete main)
Format settings, Endianness              : Big
Muxing mode                              : Header stripping
Codec ID                                 : A_AC3
Duration                                 : 2h 8mn
Bit rate mode                            : Constant
Bit rate                                 : 448 Kbps
Channel(s)                               : 6 channels
Channel positions                        : Front: L C R, Side: L R, LFE
Sampling rate                            : 48.0 KHz
Bit depth                                : 16 bits
Compression mode                         : Lossy
Delay relative to video                  : 1s 0ms
Stream size                              : 412 MiB (12%)
Title                                    : www.club-hd.com  >>  Latino
Language                                 : Spanish
Default                                  : Yes
Forced                                   : No

Audio #2
ID                                       : 3
Format                                   : AC-3
Format/Info                              : Audio Coding 3
Mode extension                           : CM (complete main)
Format settings, Endianness              : Big
Muxing mode                              : Header stripping
Codec ID                                 : A_AC3
Duration                                 : 2h 8mn
Bit rate mode                            : Constant
Bit rate                                 : 640 Kbps
Channel(s)                               : 6 channels
Channel positions                        : Front: L C R, Side: L R, LFE
Sampling rate                            : 48.0 KHz
Bit depth                                : 16 bits
Compression mode                         : Lossy
Stream size                              : 589 MiB (18%)
Title                                    : www.club-hd.com  >>  Inglés
Language                                 : English
Default                                  : No
Forced                                   : No

Text
ID                                       : 4
Format                                   : UTF-8
Codec ID                                 : S_TEXT/UTF8
Codec ID/Info                            : UTF-8 Plain Text
Language                                 : Spanish
Default                                  : No
Forced                                   : No

Menu
00:00:00.000                             : en:00:00:00.000
00:04:14.963                             : en:00:04:14.963
00:13:08.162                             : en:00:13:08.162
00:20:40.281                             : en:00:20:40.281
00:25:32.573                             : en:00:25:32.573
00:30:25.699                             : en:00:30:25.699
00:35:44.392                             : en:00:35:44.392
00:40:20.793                             : en:00:40:20.793
00:45:32.730                             : en:00:45:32.730
00:57:18.143                             : en:00:57:18.143
01:06:51.132                             : en:01:06:51.132
01:12:34.767                             : en:01:12:34.767
01:17:26.851                             : en:01:17:26.851
01:25:20.073                             : en:01:25:20.073
01:30:47.859                             : en:01:30:47.859
01:36:22.235                             : en:01:36:22.235
01:42:02.742                             : en:01:42:02.742
01:47:06.295                             : en:01:47:06.295
01:56:05.500                             : en:01:56:05.500
02:02:56.035                             : en:02:02:56.035




Descarga.jpg



MEGA.jpg

Tenemos TODO el material de Club-HD disponible por Mega, enlaces 100% activos y online hasta la fecha

Llévate tus cuentas Mega PRO III gratis con tu membresía VIP!
Todos los posts vivos con links de Mega.
Todo el material de Club-HD desbloqueado y sin publicidad.

Obtén más información sobre nuestras Membresías VIP



VIP_H.jpg


Tenemos TODO el material de Club-HD disponible por Mega, enlaces 100% activos y online hasta la fecha

Llévate tus cuentas Mega PRO III gratis con tu membresía VIP!
Todos los posts vivos con links de Mega.
Todo el material de Club-HD desbloqueado y sin publicidad.

Obtén más información sobre nuestras Membresías VIP



UPLOADED_BANNER.png

Para ver este contenido oculto, debes dar click en el botón"Like", o cualquiera de las otras reacciones:

Me Gusta Me Gusta, Me Encanta Me Encanta, Jaja Jaja, Wow Wow, Triste Triste, Molesto Molesto


OPENLOAD.png


Para ver este contenido oculto, debes dar click en el botón"Like", o cualquiera de las otras reacciones:

Me Gusta Me Gusta, Me Encanta Me Encanta, Jaja Jaja, Wow Wow, Triste Triste, Molesto Molesto
 
Última edición por un moderador:
Gracias Master, ahora podre cambiar el Dvdrip que tenia. Tambie a samuelabad por pedir esta gran pelicula :dplgar:
 
Desc_g_ gracias
 
Volver