Inside Out (2011) 720p Dual Latino-Inglés [Subt.Esp] (Drama. Crimen)

Maestro Revolver

Administrador
Registro
9 Ago 2012
Mensajes
3.157
Reacciones (ptje)
55.205

Inside-out.png




FICHA_TECNICA.png


TÍTULO ORIGINAL: Inside Out
AÑO: 2011
DURACIÓN: 157 min.
PAÍS: USA
DIRECTOR: Artie Mandelberg
GUIÓN: Dylan Schaffer
REPARTO: Paul Levesque, Michael Rapaport, Parker Posey, Bruce Dern
PRODUCTORA: DWorld Wrestling Entertainment (WWE)
GÉNERO: Drama | Crimen




SINOPSIS.png


A.J. ha estado los últimos trece años entre rejas acusado de matar a un . Ya en libertad, intentará iniciar un pequeño y vivir una vida libre de crimen.




TRAILER.png






CAPTURAS.png


3.jpg


2.jpg


1.jpg


4.jpg


La pelicula NO tiene ninguna marca... solo coloque mi nombre de usuario en las capturas




DATOS_TECNICOS.png


Código:
General
Complete name                            : Inside Out (2011) 720p BDRip Dual Latino-Inglés [Subt. Esp].mkv
Format                                   : Matroska
Format version                           : Version 4 / Version 2
File size                                : 3.93 GiB
Duration                                 : 1h 33mn
Overall bit rate                         : 6 039 Kbps
Movie name                               : www.club-hd.com -> Inside Out (2011) 720p BDRip Dual Latino-Inglés [Subt. Esp]
Encoded date                             : UTC 2016-04-19 18:39:23
Writing application                      : mkvmerge v7.1.0 ('Good Love') 64bit built on Jul 27 2014 13:06:55
Writing library                          : libebml v1.3.0 + libmatroska v1.4.1

Video
ID                                       : 1
Format                                   : AVC
Format/Info                              : Advanced Video Codec
Format profile                           : [email protected]
Format settings, CABAC                   : Yes
Format settings, ReFrames                : 5 frames
Codec ID                                 : V_MPEG4/ISO/AVC
Duration                                 : 1h 33mn
Bit rate                                 : 5 209 Kbps
Width                                    : 1 280 pixels
Height                                   : 688 pixels
Display aspect ratio                     : 1.85:1
Frame rate mode                          : Constant
Frame rate                               : 23.976 fps
Color space                              : YUV
Chroma subsampling                       : 4:2:0
Bit depth                                : 8 bits
Scan type                                : Progressive
Bits/(Pixel*Frame)                       : 0.247
Stream size                              : 3.31 GiB (84%)
Title                                    : Inside Out (2011) 720p BDRip Dual Latino-Inglés [Subt. Esp]
Writing library                          : x264 core 118 r2085 8a62835
Language                                 : English
Default                                  : Yes
Forced                                   : No

Audio #1
ID                                       : 2
Format                                   : AC-3
Format/Info                              : Audio Coding 3
Mode extension                           : CM (complete main)
Format settings, Endianness              : Big
Codec ID                                 : A_AC3
Duration                                 : 1h 33mn
Bit rate mode                            : Constant
Bit rate                                 : 192 Kbps
Channel(s)                               : 2 channels
Channel positions                        : Front: L R
Sampling rate                            : 48.0 KHz
Bit depth                                : 16 bits
Compression mode                         : Lossy
Stream size                              : 128 MiB (3%)
Title                                    : Inside Out (2011) - Español Latino AC3 2.0 - 192 Kbps
Language                                 : Spanish
Default                                  : Yes
Forced                                   : No

Audio #2
ID                                       : 3
Format                                   : AC-3
Format/Info                              : Audio Coding 3
Mode extension                           : CM (complete main)
Format settings, Endianness              : Big
Codec ID                                 : A_AC3
Duration                                 : 1h 33mn
Bit rate mode                            : Constant
Bit rate                                 : 640 Kbps
Channel(s)                               : 6 channels
Channel positions                        : Front: L C R, Side: L R, LFE
Sampling rate                            : 48.0 KHz
Bit depth                                : 16 bits
Compression mode                         : Lossy
Stream size                              : 426 MiB (11%)
Title                                    : Inside Out (2011) - Inglés AC3 5.1 - 640 Kbps
Language                                 : English
Default                                  : No
Forced                                   : No

Text
ID                                       : 4
Format                                   : UTF-8
Codec ID                                 : S_TEXT/UTF8
Codec ID/Info                            : UTF-8 Plain Text
Title                                    : Inside Out (2011) - Subtítulos Español
Language                                 : Spanish
Default                                  : No
Forced                                   : No





Un gradecimiento muy especial a nuestro amigo IACC por brindarnos este audio Latino dificil de conseguir.




CONTRASE%C3%91A-FINAL.png



Código:
www.club-hd.com[/CENTER]




DESCARGA-FINAL.png



Todos los links son Intercambiables!



google-drive-vip.png


Tenemos TODO el material de Club-HD disponible por Mega, enlaces 100% activos y online hasta la fecha

Llévate tus cuentas Mega PRO III gratis con tu membresía VIP!
Todos los posts vivos con links de Mega.
Todo el material de Club-HD desbloqueado y sin publicidad.

Obtén más información sobre nuestras Membresías VIP




MEGA-BANNER.png


Tenemos TODO el material de Club-HD disponible por Mega, enlaces 100% activos y online hasta la fecha

Llévate tus cuentas Mega PRO III gratis con tu membresía VIP!
Todos los posts vivos con links de Mega.
Todo el material de Club-HD desbloqueado y sin publicidad.

Obtén más información sobre nuestras Membresías VIP


1FICHIER.png


Tenemos TODO el material de Club-HD disponible por Mega, enlaces 100% activos y online hasta la fecha

Llévate tus cuentas Mega PRO III gratis con tu membresía VIP!
Todos los posts vivos con links de Mega.
Todo el material de Club-HD desbloqueado y sin publicidad.

Obtén más información sobre nuestras Membresías VIP


UPLOADED_BANNER.png

Para ver este contenido oculto, debes dar click en el botón"Like", o cualquiera de las otras reacciones:

Me Gusta Me Gusta, Me Encanta Me Encanta, Jaja Jaja, Wow Wow, Triste Triste, Molesto Molesto

BIGFILE.png

Para ver este contenido oculto, debes dar click en el botón"Like", o cualquiera de las otras reacciones:

Me Gusta Me Gusta, Me Encanta Me Encanta, Jaja Jaja, Wow Wow, Triste Triste, Molesto Molesto

 
Última edición:
al reproducir esta peli no aparece nada solo la pantalla en negro recuerdo alguna vez me ocurrio lo mismo cuando la descargue en ba-k amigo r21 alguna ayuda... gracias..
 
Volver