InuYasha The Movie: The Complete Collection (2013) 720p BDRip Audio Japonés [Subt. Esp] (Animación)

Maestro Revolver

Administrador
Registro
9 Ago 2012
Mensajes
3.157
Reacciones (ptje)
54.886


InuYasha.jpg




FichaTecnica.jpg


TÍTULO ORIGINAL: InuYasha The Movie: The Complete Collection
AÑO: 2001-2004 / Bluray (2013)
DURACIÓN: 380 min.
PAÍS: Japón
DIRECTOR: Toshiya Shinohara
REPARTO: Animación
PRODUCTORA: Kyoto Animation, Sunrise
GÉNERO: Aventura, Comedia, Drama, Romance, Fantasía
imdb-logo.png
: http://www.imdb.com/title/tt0290223/




Sinopsis.jpg


Las películas de Inuyasha están basadas en los manga creados por Rumiko Takahashi donde nos presentan la historia de Kagome, una chica común y corriente que es transportada al pasado en los tiempos feudales de Japón. En ese pasado ella encuentra y conoce a Inuyasha, un chico que es mitad demonio. Juntos deben batallar encontra de demonios y hacer nuevos amigos y aliados.




InuYasha The Movie: The Complete Collection

Inuyasha The Movie 1: Affections Touching Across Time
Inuyasha The Movie 2: The Castle Beyond The Looking Glass
Inuyasha The Movie 3: Swords of an Honorable Ruler
Inuyasha The Movie 4: Fire on The Mystic Island




Trailer.jpg






Capturas.jpg


1.jpg


2.jpg


3.jpg


4.jpg


5.jpg


6.jpg


7.jpg


8.jpg


La pelicula NO tiene ninguna marca... solo colocamos el nombre de esta web en las capturas




MediaInfo.jpg


Código:
General

Inuyasha Movie 1 - The Love that Transcends Time (2001) 720p BDRip Audio Japonés.mkv

Format                                   : Matroska
Format version                           : Version 2
File size                                : 1.45 GiB
Duration                                 : 1h 40mn
Overall bit rate                         : 2 077 Kbps
Movie name                               : www.club-hd.com
Encoded date                             : UTC 2013-10-04 04:26:04
Writing application                      : mkvmerge v5.7.0 ('The Whirlwind') built on Jul  8 2012 20:08:51
Writing library                          : libebml v1.2.3 + libmatroska v1.3.0

Video
ID                                       : 1
Format                                   : AVC
Format/Info                              : Advanced Video Codec
Format profile                           : [email protected]
Format settings, CABAC                   : Yes
Format settings, ReFrames                : 8 frames
Codec ID                                 : V_MPEG4/ISO/AVC
Duration                                 : 1h 40mn
Bit rate                                 : 1 588 Kbps
Width                                    : 1 280 pixels
Height                                   : 688 pixels
Display aspect ratio                     : 1.85:1
Frame rate mode                          : Constant
Frame rate                               : 23.976 fps
Color space                              : YUV
Chroma subsampling                       : 4:2:0
Bit depth                                : 8 bits
Scan type                                : Progressive
Bits/(Pixel*Frame)                       : 0.075
Stream size                              : 1.11 GiB (76%)
Title                                    : www.club-hd.com
Writing library                          : x264 core 130 r2273 b3065e6
Language                                 : Japanese
Default                                  : Yes
Forced                                   : No

Audio
ID                                       : 2
Format                                   : AC-3
Format/Info                              : Audio Coding 3
Mode extension                           : CM (complete main)
Format settings, Endianness              : Big
Codec ID                                 : A_AC3
Duration                                 : 1h 40mn
Bit rate mode                            : Constant
Bit rate                                 : 448 Kbps
Channel(s)                               : 6 channels
Channel positions                        : Front: L C R, Side: L R, LFE
Sampling rate                            : 48.0 KHz
Bit depth                                : 16 bits
Compression mode                         : Lossy
Stream size                              : 321 MiB (22%)
Title                                    : www.club-hd.com
Language                                 : Japanese
Default                                  : Yes
Forced                                   : No

Text
ID                                       : 3
Format                                   : UTF-8
Codec ID                                 : S_TEXT/UTF8
Codec ID/Info                            : UTF-8 Plain Text
Title                                    : www.club-hd.com
Language                                 : Spanish
Default                                  : Yes
Forced                                   : No

Menu
00:00:00.000                             : en:00:00:00.000
00:04:47.387                             : en:00:04:47.387
00:12:56.542                             : en:00:12:56.542
00:20:40.506                             : en:00:20:40.506
00:25:51.250                             : en:00:25:51.250
00:31:46.238                             : en:00:31:46.238
00:41:17.342                             : en:00:41:17.342
00:45:45.176                             : en:00:45:45.176
00:51:49.406                             : en:00:51:49.406
00:56:36.927                             : en:00:56:36.927
01:02:05.255                             : en:01:02:05.255
01:12:57.573                             : en:01:12:57.573
01:15:03.833                             : en:01:15:03.833
01:19:39.408                             : en:01:19:39.408
01:25:40.469                             : en:01:25:40.469
01:28:01.610                             : en:01:28:01.610
01:33:19.861                             : en:01:33:19.861
01:36:32.320                             : en:01:36:32.320




Descarga.jpg



MEGA.jpg

Tenemos TODO el material de Club-HD disponible por Mega, enlaces 100% activos y online hasta la fecha

Llévate tus cuentas Mega PRO III gratis con tu membresía VIP!
Todos los posts vivos con links de Mega.
Todo el material de Club-HD desbloqueado y sin publicidad.

Obtén más información sobre nuestras Membresías VIP


UPLOADED_BANNER.png

Para ver este contenido oculto, debes dar click en el botón"Like", o cualquiera de las otras reacciones:

Me Gusta Me Gusta, Me Encanta Me Encanta, Jaja Jaja, Wow Wow, Triste Triste, Molesto Molesto

 
Última edición por un moderador:
woooow un serie muy buena que no tenia el famoso parecido a otras con una trama un tanto diferente para aquella fecha , y estas películas que para aquel entonces las disfrute en vhs como no las voy a dejar pasar si son todo un gran recuerdo de mi infancia y parte de mi adolescencia master gracias totales
 
:OHHH: Otro Anime, pero como estamos con este rubro ultimamente dance3dance3d4nce2
MIL GRACIAS Revolver, e visto todo este anime y esta muy bueno, desde ya no me puedo perder la peli.
Saludo bye
 
Pl4yb0ycl4p:aplausos::sprloc:Hurr4h:LXR::LXR:l0ve2yahoo:thank-you:Esto para mi era un imposible de conseguir, MUCHISIMAS GRACIAS BOSSSSSSSSSS !!!!!!!!!!!

Siempre mimandonos Gracias muchas gracias mi gran Master!!!!!!!!!!!Pl4yb0y:dplgar:
 
Volver