Iron Maiden - Flight 666 (2009) m-1080p BDRip [AC3 5.1] (Concierto)

Maestro Revolver

Administrador
Registro
9 Ago 2012
Mensajes
3.157
Reacciones (ptje)
54.886

Iron-Maiden-Flight.jpg





Sinopsis.jpg


Documental sobre la primera gira mundial "Somewhere Back In Time" que llevó a la banda inglesa Iron Maiden a recorrer 70.000 kilómetros a través de los cinco continentes y presentarse 23 veces en apenas 45 días a bordo del avión de la banda, el Boeing 757 "Ed Force One", pilotado por el vocalista Bruce Dickinson.



Track List:

1. Churchill's Speech / Aces High (Mumbai, India. 1 Febrero, 2008)
2. 2 Minutes to Midnight (Melbourne, Australia. 7 Febrero, 2008)
3. Revelations (Sydney, Australia. 9 Febrero, 2008)
4. The Trooper (Tokyo, Japón. 16 Febrero, 2008)
5. Wasted Years (Monterrey, Mexico. 22 Febrero, 2008)
6. The Number of the Beast (Los Angeles, USA. 19 Febrero, 2008)
7. Can I Play With Madness (Ciudad de Mexico, Mexico. 24 Febrero, 2008)
8. The Rime of the Ancient Mariner (New Jersey, USA. 14 Marzo, 2008)
9. Powerslave (San Jose, Costa Rica. 26 Febrero, 2008)
10. Heaven Can Wait (Sao Paulo, Brazil. 2 Marzo, 2008)
11. Run to the Hills (Bogota, Colombia. 28 Febrero, 2008)
12. Fear of the Dark (Buenos Aires, Argentina. 7 Marzo, 2008)
13. Iron Maiden (Santiago, Chile. 9 Marzo, 2008)
14. Moonchild (San Juan, Puerto Rico. 12 Marzo, 2008)
15.The Clairvoyant (Curitiba, Brazil. 4 Marzo, 2008)
16. Hallowed be thy Name (Toronto, Canada. 16 Marzo, 2008)




Trailer.jpg






Capturas.jpg


1.jpg


2.jpg


3.jpg


4.jpg


5.jpg


6.jpg





MediaInfo.jpg


Código:
General
Format                                   : Matroska
Format version                           : Version 2
File size                                : 3.71 GiB
Duration                                 : 1h 44mn
Overall bit rate                         : 5 084 Kbps
Movie name                               : www.club-hd.com
Encoded date                             : UTC 2013-04-10 01:34:07
Writing application                      : mkvmerge v5.7.0 ('The Whirlwind') built on Jul  8 2012 20:08:51
Writing library                          : libebml v1.2.3 + libmatroska v1.3.0

Video
ID                                       : 1
Format                                   : AVC
Format/Info                              : Advanced Video Codec
Format profile                           : [email protected]
Format settings, CABAC                   : Yes
Format settings, ReFrames                : 4 frames
Codec ID                                 : V_MPEG4/ISO/AVC
Duration                                 : 1h 44mn
Bit rate                                 : 4 500 Kbps
Width                                    : 1 920 pixels
Height                                   : 1 080 pixels
Display aspect ratio                     : 16:9
Frame rate mode                          : Constant
Frame rate                               : 23.976 fps
Color space                              : YUV
Chroma subsampling                       : 4:2:0
Bit depth                                : 8 bits
Scan type                                : Progressive
Bits/(Pixel*Frame)                       : 0.091
Stream size                              : 3.17 GiB (85%)
Title                                    : www.club-hd.com
Writing library                          : x264 core 112
Language                                 : English
Default                                  : Yes
Forced                                   : No
Color primaries                          : BT.709
Transfer characteristics                 : BT.709
Matrix coefficients                      : BT.709

Audio
ID                                       : 2
Format                                   : AC-3
Format/Info                              : Audio Coding 3
Mode extension                           : CM (complete main)
Format settings, Endianness              : Big
Codec ID                                 : A_AC3
Duration                                 : 1h 44mn
Bit rate mode                            : Constant
Bit rate                                 : 640 Kbps
Channel(s)                               : 6 channels
Channel positions                        : Front: L C R, Side: L R, LFE
Sampling rate                            : 48.0 KHz
Bit depth                                : 16 bits
Compression mode                         : Lossy
Stream size                              : 478 MiB (13%)
Title                                    : www.club-hd.com
Language                                 : English
Default                                  : Yes
Forced                                   : No

Menu
00:00:00.000                             : en:1. Aces High
00:05:37.879                             : en:2. Two Minutes To Midnight
00:11:38.447                             : en:3. Revelations
00:18:38.117                             : en:4. The Trooper
00:22:53.080                             : en:5. Wasted Years
00:29:16.337                             : en:6. The Number Of The Beast
00:34:16.763                             : en:7. Can I Play With Madness
00:38:01.320                             : en:8. Rime Of The Ancient Mariner
00:51:51.358                             : en:9. Powerslave
00:59:24.686                             : en:10. Heaven Can Wait
01:06:55.678                             : en:11. Run To The Hills
01:11:06.262                             : en:12. Year Of The Dark
01:18:45.929                             : en:13. Iron Maiden
01:24:17.677                             : en:14. Moonchild
01:30:21.207                             : en:15. The Clairvoyant
01:35:00.069                             : en:16. Hallowed Be Thy Name




Descarga.jpg



MEGA.jpg

Tenemos TODO el material de Club-HD disponible por Mega, enlaces 100% activos y online hasta la fecha

Llévate tus cuentas Mega PRO III gratis con tu membresía VIP!
Todos los posts vivos con links de Mega.
Todo el material de Club-HD desbloqueado y sin publicidad.

Obtén más información sobre nuestras Membresías VIP



UPLOADED_BANNER.png

Para ver este contenido oculto, debes dar click en el botón"Like", o cualquiera de las otras reacciones:

Me Gusta Me Gusta, Me Encanta Me Encanta, Jaja Jaja, Wow Wow, Triste Triste, Molesto Molesto

 
Última edición por un moderador:
Chuta se pasarón... este concierto lo estaba esperando desde que habieron chd geniaaaal... \,,/,
 
Que maravilla maestro, estos titulos tan buenos, muchas pero muchas gracias
 
:OHHH: :OHHH: :OHHH: Capo Bruce Dickinson!!! Pero que bueno que hallas subido este aporte...impresionante!

El numero de la bestia ahora es 21 3vil_4 R0ckin2

Aplausos por favor :aplausos: :aplausos: :aplausos:

Muchas gracias Re-vol-ver! victory
 
como estas tirando la casa con estos conciertos :dplgar: H_b4nger creo que voy a tener para rato de escándalos a todo volumen
 
naaaa te pasas!!!!!!! lo tengo pero no con esta calidad, gracias revolver!!!!!!!!! genio!!!!!!

bajandoooooo
 
Revolver eres un grande sin duda!! muchas gracias por no solo ofrecernos buenas películas sino también estos conciertazos!! ahora con los grandes de Iron Maiden.... R0ckin2 :dplgar: :aplausos::aplausos:
 
Volver