Iron Man 3 (2013) 1080p BDRip Dual Latino-Inglés [Subt. Esp] (Fantástico. Ciencia ficción. Acción)

Maestro Revolver

Administrador
Registro
9 Ago 2012
Mensajes
3.157
Reacciones (ptje)
54.925


Ironman-3-1080p.jpg




FichaTecnica.jpg


TÍTULO ORIGINAL: Iron Man 3 (Ironman 3)
AÑO: 2013
DURACIÓN: 118 min.
PAÍS: USA
DIRECTOR: Shane Black
GUIÓN: Shane Black, Drew Pearce (Personajes: Stan Lee)
REPARTO: Robert Downey Jr., Ben Kingsley, Gwyneth Paltrow, Don Cheadle, Guy Pearce, Rebecca Hall, James Badge Dale, Stephanie Szostak, Ty Simpkins, Wang Xueqi, Jon Favreau, William Sadler, Miguel Ferrer, Bingbing Fan, Yvonne Zima, Dale Dickey, Ashley Hamilton, Stan Lee
PRODUCTORA: Marvel Studios / Walt Disney Pictures
GÉNERO: Fantástico. Ciencia ficción. Acción | Superhéroes. Cómic. Marvel Comics. Secuela. 3-D. Robots. Terrorismo
imdb-logo.png
: http://www.imdb.com/title/tt1300854/




Sinopsis.jpg


El descarado y brillante empresario Tony Stark/Iron Man se enfrentará a un enemigo cuyo poder no conoce límites. Cuando Stark comprende que su enemigo ha destruido su universo personal, se embarca en una angustiosa búsqueda para encontrar a los responsables. Este viaje pondrá a prueba su entereza una y otra vez. Acorralado, Stark tendrá que sobrevivir por sus propios medios, confiando en su ingenio y su instinto para proteger a las personas que quiere.




Trailer.jpg






Capturas.jpg


1.jpg


2.jpg


3.jpg


4.jpg


5.jpg


6.jpg


La pelicula NO tiene ninguna marca... solo colocamos el nombre de esta web en las capturas




MediaInfo.jpg


Código:
General
Format                                   : Matroska
Format version                           : Version 2
File size                                : 13.1 GiB
Duration                                 : 2h 10mn
Overall bit rate                         : 14.4 Mbps
Movie name                               : www.club-hd.com
Encoded date                             : UTC 2013-08-25 02:50:43
Writing application                      : mkvmerge v5.7.0 ('The Whirlwind') built on Jul  8 2012 20:08:51
Writing library                          : libebml v1.2.3 + libmatroska v1.3.0

Video
ID                                       : 1
Format                                   : AVC
Format/Info                              : Advanced Video Codec
Format profile                           : [email protected]
Format settings, CABAC                   : Yes
Format settings, ReFrames                : 5 frames
Codec ID                                 : V_MPEG4/ISO/AVC
Duration                                 : 2h 10mn
Bit rate                                 : 11.6 Mbps
Width                                    : 1 920 pixels
Height                                   : 800 pixels
Display aspect ratio                     : 2.40:1
Frame rate mode                          : Constant
Frame rate                               : 23.976 fps
Color space                              : YUV
Chroma subsampling                       : 4:2:0
Bit depth                                : 8 bits
Scan type                                : Progressive
Bits/(Pixel*Frame)                       : 0.316
Stream size                              : 10.3 GiB (79%)
Title                                    : www.club-hd.com
Writing library                          : x264 core 130 r2273 b3065e6
Language                                 : English
Default                                  : Yes
Forced                                   : No

Audio #1
ID                                       : 2
Format                                   : AC-3
Format/Info                              : Audio Coding 3
Mode extension                           : CM (complete main)
Format settings, Endianness              : Big
Codec ID                                 : A_AC3
Duration                                 : 2h 10mn
Bit rate mode                            : Constant
Bit rate                                 : 640 Kbps
Channel(s)                               : 6 channels
Channel positions                        : Front: L C R, Side: L R, LFE
Sampling rate                            : 48.0 KHz
Bit depth                                : 16 bits
Compression mode                         : Lossy
Stream size                              : 598 MiB (4%)
Title                                    : www.club-hd.com > Latino AC3 5.1
Language                                 : Spanish
Default                                  : Yes
Forced                                   : No

Audio #2
ID                                       : 3
Format                                   : AC-3
Format/Info                              : Audio Coding 3
Mode extension                           : CM (complete main)
Format settings, Endianness              : Big
Codec ID                                 : A_AC3
Duration                                 : 2h 10mn
Bit rate mode                            : Constant
Bit rate                                 : 640 Kbps
Channel(s)                               : 6 channels
Channel positions                        : Front: L C R, Side: L R, LFE
Sampling rate                            : 48.0 KHz
Bit depth                                : 16 bits
Compression mode                         : Lossy
Stream size                              : 598 MiB (4%)
Title                                    : www.club-hd.com > Inglés AC3 5.1
Language                                 : English
Default                                  : No
Forced                                   : No

Audio #3
ID                                       : 4
Format                                   : DTS
Format/Info                              : Digital Theater Systems
Mode                                     : 16
Format settings, Endianness              : Big
Codec ID                                 : A_DTS
Duration                                 : 2h 10mn
Bit rate mode                            : Constant
Bit rate                                 : 1 509 Kbps
Channel(s)                               : 6 channels
Channel positions                        : Front: L C R, Side: L R, LFE
Sampling rate                            : 48.0 KHz
Bit depth                                : 24 bits
Compression mode                         : Lossy
Stream size                              : 1.38 GiB (10%)
Title                                    : www.club-hd.com > Inglés DTS 5.1
Language                                 : English
Default                                  : No
Forced                                   : No

Text
ID                                       : 5
Format                                   : UTF-8
Codec ID                                 : S_TEXT/UTF8
Codec ID/Info                            : UTF-8 Plain Text
Language                                 : Spanish
Default                                  : No
Forced                                   : No

Menu
00:00:00.000                             : en:00:00:00.000
00:04:52.751                             : en:00:04:52.751
00:07:55.433                             : en:00:07:55.433
00:12:12.440                             : en:00:12:12.440
00:19:04.101                             : en:00:19:04.101
00:23:47.885                             : en:00:23:47.885
00:29:47.703                             : en:00:29:47.703
00:39:46.384                             : en:00:39:46.384
00:45:56.045                             : en:00:45:56.045
00:59:19.639                             : en:00:59:19.639
01:01:56.922                             : en:01:01:56.922
01:09:24.452                             : en:01:09:24.452
01:18:41.508                             : en:01:18:41.508
01:23:52.945                             : en:01:23:52.945
01:37:55.995                             : en:01:37:55.995
01:56:18.305                             : en:01:56:18.305
01:59:38.755                             : en:01:59:38.755




Descarga.jpg



MEGA.jpg

Tenemos TODO el material de Club-HD disponible por Mega, enlaces 100% activos y online hasta la fecha

Llévate tus cuentas Mega PRO III gratis con tu membresía VIP!
Todos los posts vivos con links de Mega.
Todo el material de Club-HD desbloqueado y sin publicidad.

Obtén más información sobre nuestras Membresías VIP


UPLOADED_BANNER.png

Para ver este contenido oculto, debes dar click en el botón"Like", o cualquiera de las otras reacciones:

Me Gusta Me Gusta, Me Encanta Me Encanta, Jaja Jaja, Wow Wow, Triste Triste, Molesto Molesto

google-drive.png

Para ver este contenido oculto, debes dar click en el botón"Like", o cualquiera de las otras reacciones:

Me Gusta Me Gusta, Me Encanta Me Encanta, Jaja Jaja, Wow Wow, Triste Triste, Molesto Molesto
 
Última edición por un moderador:
Desc_g_

Excelente!!! :sprloc::OHHH:

La estaba esperando desde que la vi en el cine y aunque no me gusto tanto como las otras es una pelicula que debo de tener en la coleccion =P

Muchas gracias Revolver!!! :dplgar: Eres grande Ne0, en serio, mi respeto!! :LXR:

Saludos :D
 
Volver