Iron Man 3 (2013) 3D H-SBS 1080p BDRip Dual Latino-Inglés [Subt. Esp] (Fantástico. Ciencia ficción. Acción)

Maestro Revolver

Well-known member
Miembro del Staff
Administrador
Registro
9 Ago 2012
Mensajes
3.567








TÍTULO ORIGINAL: Iron Man 3 (Ironman 3)
AÑO: 2013
DURACIÓN: 118 min.
PAÍS: USA
DIRECTOR: Shane Black
GUIÓN: Shane Black, Drew Pearce (Personajes: Stan Lee)
REPARTO: Robert Downey Jr., Ben Kingsley, Gwyneth Paltrow, Don Cheadle, Guy Pearce, Rebecca Hall, James Badge Dale, Stephanie Szostak, Ty Simpkins, Wang Xueqi, Jon Favreau, William Sadler, Miguel Ferrer, Bingbing Fan, Yvonne Zima, Dale Dickey, Ashley Hamilton, Stan Lee
PRODUCTORA: Marvel Studios / Walt Disney Pictures
GÉNERO: Fantástico. Ciencia ficción. Acción | Superhéroes. Cómic. Marvel Comics. Secuela. 3-D. Robots. Terrorismo
: http://www.imdb.com/title/tt1300854/






El descarado y brillante empresario Tony Stark/Iron Man se enfrentará a un enemigo cuyo poder no conoce límites. Cuando Stark comprende que su enemigo ha destruido su universo personal, se embarca en una angustiosa búsqueda para encontrar a los responsables. Este viaje pondrá a prueba su entereza una y otra vez. Acorralado, Stark tendrá que sobrevivir por sus propios medios, confiando en su ingenio y su instinto para proteger a las personas que quiere.
























La pelicula NO tiene ninguna marca... solo colocamos el nombre de esta web en las capturas






Código:
General
Format                                   : Matroska
Format version                           : Version 2
File size                                : 13.7 GiB
Duration                                 : 2h 10mn
Overall bit rate                         : 15.1 Mbps
Movie name                               : www.club-hd.com
Encoded date                             : UTC 2013-08-25 01:24:17
Writing application                      : mkvmerge v5.7.0 ('The Whirlwind') built on Jul  8 2012 20:08:51
Writing library                          : libebml v1.2.3 + libmatroska v1.3.0

Video
ID                                       : 1
Format                                   : AVC
Format/Info                              : Advanced Video Codec
Format profile                           : High@L4.1
Format settings, CABAC                   : Yes
Format settings, ReFrames                : 3 frames
Format settings, GOP                     : M=4, N=24
Codec ID                                 : V_MPEG4/ISO/AVC
Duration                                 : 2h 10mn
Bit rate                                 : 12.0 Mbps
Width                                    : 1 920 pixels
Height                                   : 800 pixels
Display aspect ratio                     : 2.40:1
Frame rate mode                          : Constant
Frame rate                               : 23.976 fps
Color space                              : YUV
Chroma subsampling                       : 4:2:0
Bit depth                                : 8 bits
Scan type                                : Progressive
Bits/(Pixel*Frame)                       : 0.326
Stream size                              : 10.9 GiB (80%)
Title                                    : www.club-hd.com
Writing library                          : x264 core
Language                                 : English
Default                                  : Yes
Forced                                   : No
Color primaries                          : BT.709
Transfer characteristics                 : BT.709
Matrix coefficients                      : BT.709

Audio #1
ID                                       : 2
Format                                   : AC-3
Format/Info                              : Audio Coding 3
Mode extension                           : CM (complete main)
Format settings, Endianness              : Big
Codec ID                                 : A_AC3
Duration                                 : 2h 10mn
Bit rate mode                            : Constant
Bit rate                                 : 640 Kbps
Channel(s)                               : 6 channels
Channel positions                        : Front: L C R, Side: L R, LFE
Sampling rate                            : 48.0 KHz
Bit depth                                : 16 bits
Compression mode                         : Lossy
Stream size                              : 598 MiB (4%)
Title                                    : www.club-hd.com > Latino AC3 5.1
Language                                 : Spanish
Default                                  : Yes
Forced                                   : No

Audio #2
ID                                       : 3
Format                                   : AC-3
Format/Info                              : Audio Coding 3
Mode extension                           : CM (complete main)
Format settings, Endianness              : Big
Codec ID                                 : A_AC3
Duration                                 : 2h 10mn
Bit rate mode                            : Constant
Bit rate                                 : 640 Kbps
Channel(s)                               : 6 channels
Channel positions                        : Front: L C R, Side: L R, LFE
Sampling rate                            : 48.0 KHz
Bit depth                                : 16 bits
Compression mode                         : Lossy
Stream size                              : 598 MiB (4%)
Title                                    : www.club-hd.com > Inglés AC3 5.1
Language                                 : English
Default                                  : No
Forced                                   : No

Audio #3
ID                                       : 4
Format                                   : DTS
Format/Info                              : Digital Theater Systems
Mode                                     : 16
Format settings, Endianness              : Big
Codec ID                                 : A_DTS
Duration                                 : 2h 10mn
Bit rate mode                            : Constant
Bit rate                                 : 1 509 Kbps
Channel(s)                               : 6 channels
Channel positions                        : Front: L C R, Side: L R, LFE
Sampling rate                            : 48.0 KHz
Bit depth                                : 24 bits
Compression mode                         : Lossy
Stream size                              : 1.38 GiB (10%)
Title                                    : www.club-hd.com > Inglés DTS 5.1
Language                                 : English
Default                                  : No
Forced                                   : No

Text #1
ID                                       : 5
Format                                   : UTF-8
Codec ID                                 : S_TEXT/UTF8
Codec ID/Info                            : UTF-8 Plain Text
Language                                 : Spanish
Default                                  : No
Forced                                   : No

Text #2
ID                                       : 6
Format                                   : VobSub
Muxing mode                              : zlib
Codec ID                                 : S_VOBSUB
Codec ID/Info                            : The same subtitle format used on DVDs
Title                                    : 3D
Language                                 : Spanish
Default                                  : No
Forced                                   : No

Menu
00:00:00.000                             : en:(01)00:00:00:000
00:04:52.750                             : en:(02)00:04:52:750
00:07:55.433                             : en:(03)00:07:55:433
00:12:12.440                             : en:(04)00:12:12:440
00:19:04.101                             : en:(05)00:19:04:101
00:23:47.884                             : en:(06)00:23:47:884
00:29:47.702                             : en:(07)00:29:47:702
00:39:46.384                             : en:(08)00:39:46:384
00:45:56.044                             : en:(09)00:45:56:044
00:59:19.639                             : en:(10)00:59:19:639
01:01:56.921                             : en:(11)01:01:56:921
01:09:24.451                             : en:(12)01:09:24:451
01:18:41.508                             : en:(13)01:18:41:508
01:23:52.944                             : en:(14)01:23:52:944
01:37:55.995                             : en:(15)01:37:55:995
01:56:18.304                             : en:(16)01:56:18:304
01:59:38.754                             : en:(17)01:59:38:754
02:10:32.616                             : en:(18)02:10:32:616








Enlaces de Mega y Google Drive solo disponibles para Miembros VIP

Compra tu Membresía VIP y apoya a Club-HD!

ATENCIÓN! Tenemos TODO el material de Club-HD disponible por Mega y Google Drive, enlaces 100% activos y online hasta la fecha

Llévate tus cuentas Mega PRO III gratis con tu membresía VIP!
Todos los posts vivos con links de Mega y Google Drive.
Todo el material de Club-HD desbloqueado y sin publicidad.

Click Aquí para más información.



Para ver este contenido oculto, debes dar click en una de las siguientes reacciones : Like Like, Love Love, Haha Haha, Wow Wow, Sad Sad, Angry Angry

 
Última edición por un moderador:

Usuarios Que Están Viendo Este Tema (Total: 1, Miembros: 0, Invitados: 1)

Quién Leyó Este Tema (Total Miembros: 4)

Arriba