• Buenos dias amigos del club. Les queremos avisar que ya recuperamos el acceso a las webs de las Membresías VIP y del Paste. Asi que ya pueden comprar sus membresías y descargar todos los estrenos nuevamente.

Iron Man & Hulk: Heroes United (2013) 1080p BDRip Dual Latino-Inglés [Subt. Esp] (Animación)

Maestro Revolver

Administrador
Registro
9 Ago 2012
Mensajes
3.157
Reacciones (ptje)
55.317


Iron-Man-&-Hulk%E2%80%93Heroes-United.jpg




FichaTecnica.jpg


TÍTULO ORIGINAL: Iron Man & Hulk: Heroes United (Ironman and Hulk Heroes United)
AÑO: 2013
DURACIÓN: 72 min.
PAÍS: USA
DIRECTOR: Eric Radomski, Leo Riley
GUIÓN: Henry Gilroy, Brandon Auman
REPARTO: Animation
PRODUCTORA: Brain Zoo Studios / Marvel Entertainment
GÉNERO: Animación. Acción. Ciencia ficción | Superhéroes. Cómic. Marvel Comics
imdb-logo.png
: http://www.imdb.com/title/tt3221698/




Sinopsis.jpg


Iron Man y Hulk forman equipo para detener al villano Zzzac, una criatura creada de energía pura que puede absorber la mente de los humanos.




Trailer.jpg






Capturas.jpg


1.jpg


2.jpg


3.jpg


4.jpg


5.jpg


6.jpg


La pelicula NO tiene ninguna marca... solo colocamos el nombre de esta web en las capturas




MediaInfo.jpg


Código:
General
Format                                   : Matroska
Format version                           : Version 2
File size                                : 2.87 GiB
Duration                                 : 1h 11mn
Overall bit rate                         : 5 721 Kbps
Movie name                               : www.club-hd.com
Encoded date                             : UTC 2013-12-28 00:03:46
Writing application                      : mkvmerge v5.7.0 ('The Whirlwind') built on Jul  8 2012 20:08:51
Writing library                          : libebml v1.2.3 + libmatroska v1.3.0

Video
ID                                       : 1
Format                                   : AVC
Format/Info                              : Advanced Video Codec
Format profile                           : [email protected]
Format settings, CABAC                   : Yes
Format settings, ReFrames                : 4 frames
Codec ID                                 : V_MPEG4/ISO/AVC
Duration                                 : 1h 11mn
Bit rate                                 : 4 750 Kbps
Width                                    : 1 920 pixels
Height                                   : 1 080 pixels
Display aspect ratio                     : 16:9
Frame rate mode                          : Constant
Frame rate                               : 23.976 fps
Color space                              : YUV
Chroma subsampling                       : 4:2:0
Bit depth                                : 8 bits
Scan type                                : Progressive
Bits/(Pixel*Frame)                       : 0.096
Stream size                              : 2.30 GiB (80%)
Title                                    : www.club-hd.com
Writing library                          : x264 core 112
Language                                 : English
Default                                  : Yes
Forced                                   : No
Color primaries                          : BT.709
Transfer characteristics                 : BT.709
Matrix coefficients                      : BT.709

Audio #1
ID                                       : 2
Format                                   : AC-3
Format/Info                              : Audio Coding 3
Mode extension                           : CM (complete main)
Format settings, Endianness              : Big
Codec ID                                 : A_AC3
Duration                                 : 1h 11mn
Bit rate mode                            : Constant
Bit rate                                 : 384 Kbps
Channel(s)                               : 6 channels
Channel positions                        : Front: L C R, Side: L R, LFE
Sampling rate                            : 48.0 KHz
Bit depth                                : 16 bits
Compression mode                         : Lossy
Stream size                              : 197 MiB (7%)
Title                                    : www.club-hd.com  >>  Latino
Language                                 : Spanish
Default                                  : Yes
Forced                                   : No

Audio #2
ID                                       : 3
Format                                   : AC-3
Format/Info                              : Audio Coding 3
Mode extension                           : CM (complete main)
Format settings, Endianness              : Big
Codec ID                                 : A_AC3
Duration                                 : 1h 11mn
Bit rate mode                            : Constant
Bit rate                                 : 640 Kbps
Channel(s)                               : 6 channels
Channel positions                        : Front: L C R, Side: L R, LFE
Sampling rate                            : 48.0 KHz
Bit depth                                : 16 bits
Compression mode                         : Lossy
Stream size                              : 328 MiB (11%)
Title                                    : www.club-hd.com  >>  Inglés
Language                                 : English
Default                                  : No
Forced                                   : No

Text
ID                                       : 4
Format                                   : UTF-8
Codec ID                                 : S_TEXT/UTF8
Codec ID/Info                            : UTF-8 Plain Text
Language                                 : Spanish
Default                                  : No
Forced                                   : No

Menu
00:00:00.000                             : en:Chapter 1
00:03:10.440                             : en:Chapter 2
00:05:01.843                             : en:Chapter 3
00:07:17.979                             : en:Chapter 4
00:09:52.925                             : en:Chapter 5
00:15:08.616                             : en:Chapter 6
00:21:39.965                             : en:Chapter 7
00:27:00.410                             : en:Chapter 8
00:30:33.998                             : en:Chapter 9
00:36:04.245                             : en:Chapter 10
00:41:19.226                             : en:Chapter 11
00:48:01.587                             : en:Chapter 12
00:53:03.138                             : en:Chapter 13
00:57:29.571                             : en:Chapter 14
01:02:10.601                             : en:Chapter 15
01:07:51.525                             : en:Chapter 16




Descarga.jpg



MEGA.jpg

Tenemos TODO el material de Club-HD disponible por Mega, enlaces 100% activos y online hasta la fecha

Llévate tus cuentas Mega PRO III gratis con tu membresía VIP!
Todos los posts vivos con links de Mega.
Todo el material de Club-HD desbloqueado y sin publicidad.

Obtén más información sobre nuestras Membresías VIP



UPLOADED_BANNER.png

Para ver este contenido oculto, debes dar click en el botón"Like", o cualquiera de las otras reacciones:

Me Gusta Me Gusta, Me Encanta Me Encanta, Jaja Jaja, Wow Wow, Triste Triste, Molesto Molesto

google-drive.png


Para ver este contenido oculto, debes dar click en el botón"Like", o cualquiera de las otras reacciones:

Me Gusta Me Gusta, Me Encanta Me Encanta, Jaja Jaja, Wow Wow, Triste Triste, Molesto Molesto
 
Última edición por un moderador:
Muchas Gracias!!!


Rumores con Doctor Jason:

Auspicia este segmento: Cerveza Heineken
heineken_logo.jpg


shehulkpauliegirl.jpg


Los rumores dicen que es inminente la separación entre Hulk y su mujer; tras las declaraciones de ella, el viernes pasado a un canal de dibujos animados, en la que dijo que ella esperaba a un hombre más "maduro" a su lado y él eso no se lo cumpliría nunca!!! :plmfc:
 
Volver