Iron Man: Rise of the Technovore (2013) 1080p BDRip Dual Latino-Inglés [Subt. Esp] (Animación)

Maestro Revolver

Well-known member
Miembro del Staff
Administrador
Registro
9 Ago 2012
Mensajes
3.569
Reacciones
59.346
Puntos
113

Reputation:

Aporte Recuperado gracias a nuestro amigo clasaase






TÍTULO ORIGINAL: Iron Man: Rise of the Technovore (Ironman Anime Movie)
AÑO: 2013
DURACIÓN: 88 min.
PAÍS: Japón
DIRECTOR: Hiroshi Hamasaki
GUIÓN: Kengo Kaji (Historia: Brandon Auman)
REPARTO: Animation
PRODUCTORA: Madhouse Inc.
GÉNERO: Animación. Acción. Ciencia ficción | Robots. Superhéroes. Cómic. Marvel Comics
: http://www.imdb.com/title/tt2654124/






Dirigido por Hiroshi Hamasaki y con una historia de Brandon Auman, esta película explora la confrontación entre Iron Man y el villano Ezekiel Stane, quien desarrolla nueva biotecnología que, al parecer, sobrepasa la de la armadura de Iron Man. Así, Stane lanzará un ataque terrorista y hará parecer culpable a Iron Man, tras lo cual, el propio Stark tendrá que evadir a los cazadores de S.H.I.E.L.D. y encontrar la manera de limpiar su nombre.
























La pelicula NO tiene ninguna marca... solo colocamos el nombre de esta web en las capturas





Código:
General
Complete name                            : Iron Man Rise of the Technovore (2013) 1080p BDRip Dual Latino-Inglés [Subt. Esp].mkv
Format                                   : Matroska
Format version                           : Version 4
File size                                : 5.16 GiB
Duration                                 : 1 h 28 min
Overall bit rate                         : 8 386 kb/s
Movie name                               : Iron Man - Rise of the Technovore (2013) 1080p Dual
Encoded date                             : UTC 2020-07-30 01:46:25
Writing application                      : mkvmerge v33.0.0 ('A Little Bit of Madness') 64-bit
Writing library                          : libebml v1.3.7 + libmatroska v1.5.0

Video
ID                                       : 1
Format                                   : AVC
Format/Info                              : Advanced Video Codec
Format profile                           : High@L4.1
Format settings                          : CABAC / 4 Ref Frames
Format settings, CABAC                   : Yes
Format settings, Reference frames        : 4 frames
Codec ID                                 : V_MPEG4/ISO/AVC
Duration                                 : 1 h 28 min
Bit rate                                 : 5 595 kb/s
Width                                    : 1 920 pixels
Height                                   : 1 080 pixels
Display aspect ratio                     : 16:9
Frame rate mode                          : Constant
Frame rate                               : 23.976 (24000/1001) FPS
Color space                              : YUV
Chroma subsampling                       : 4:2:0
Bit depth                                : 8 bits
Scan type                                : Progressive
Bits/(Pixel*Frame)                       : 0.113
Stream size                              : 3.44 GiB (67%)
Title                                    : Iron Man - Rise of the Technovore (2013) 1080p Dual
Writing library                          : x264 core 130 r2273 b3065e6
Encoding settings                        : cabac=1 / ref=4 / deblock=1:-1:-1 / analyse=0x3:0x133 / me=umh / subme=7 / psy=1 / psy_rd=1.00:0.00 / mixed_ref=1 / me_range=16 / chroma_me=1 / trellis=1 / 8x8dct=1 / cqm=0 / deadzone=21,11 / fast_pskip=1 / chroma_qp_offset=-2 / threads=12 / lookahead_threads=2 / sliced_threads=0 / nr=0 / decimate=1 / interlaced=0 / bluray_compat=0 / constrained_intra=0 / bframes=3 / b_pyramid=2 / b_adapt=2 / b_bias=0 / direct=1 / weightb=1 / open_gop=0 / weightp=2 / keyint=250 / keyint_min=23 / scenecut=40 / intra_refresh=0 / rc_lookahead=40 / rc=2pass / mbtree=1 / bitrate=5595 / ratetol=1.0 / qcomp=0.60 / qpmin=0 / qpmax=69 / qpstep=4 / cplxblur=20.0 / qblur=0.5 / ip_ratio=1.40 / aq=1:1.00
Language                                 : English
Default                                  : Yes
Forced                                   : No

Audio #1
ID                                       : 2
Format                                   : AC-3
Format/Info                              : Audio Coding 3
Commercial name                          : Dolby Digital
Codec ID                                 : A_AC3
Duration                                 : 1 h 28 min
Bit rate mode                            : Constant
Bit rate                                 : 640 kb/s
Channel(s)                               : 6 channels
Channel layout                           : L R C LFE Ls Rs
Sampling rate                            : 48.0 kHz
Frame rate                               : 31.250 FPS (1536 SPF)
Compression mode                         : Lossy
Stream size                              : 403 MiB (8%)
Title                                    : Latino AC3 5.1
Language                                 : Spanish
Service kind                             : Complete Main
Default                                  : Yes
Forced                                   : No

Audio #2
ID                                       : 3
Format                                   : AC-3
Format/Info                              : Audio Coding 3
Commercial name                          : Dolby Digital
Codec ID                                 : A_AC3
Duration                                 : 1 h 28 min
Bit rate mode                            : Constant
Bit rate                                 : 640 kb/s
Channel(s)                               : 6 channels
Channel layout                           : L R C LFE Ls Rs
Sampling rate                            : 48.0 kHz
Frame rate                               : 31.250 FPS (1536 SPF)
Compression mode                         : Lossy
Stream size                              : 403 MiB (8%)
Title                                    : Inglés AC3 5.1
Language                                 : English
Service kind                             : Complete Main
Default                                  : No
Forced                                   : No

Audio #3
ID                                       : 4
Format                                   : DTS
Format/Info                              : Digital Theater Systems
Codec ID                                 : A_DTS
Duration                                 : 1 h 28 min
Bit rate mode                            : Constant
Bit rate                                 : 1 509 kb/s
Channel(s)                               : 6 channels
Channel layout                           : C L R Ls Rs LFE
Sampling rate                            : 48.0 kHz
Frame rate                               : 93.750 FPS (512 SPF)
Bit depth                                : 16 bits
Compression mode                         : Lossy
Stream size                              : 951 MiB (18%)
Title                                    : Inglés DTS 5.1
Language                                 : English
Default                                  : No
Forced                                   : No

Text
ID                                       : 5
Format                                   : UTF-8
Codec ID                                 : S_TEXT/UTF8
Codec ID/Info                            : UTF-8 Plain Text
Duration                                 : 1 h 22 min
Bit rate                                 : 64 b/s
Count of elements                        : 1118
Stream size                              : 38.8 KiB (0%)
Title                                    : Latino
Language                                 : Spanish
Default                                  : No
Forced                                   : No

Menu
00:00:00.000                             : en:00:00:00.000
00:04:31.437                             : en:00:04:31.437
00:10:40.181                             : en:00:10:40.181
00:16:04.296                             : en:00:16:04.296
00:20:42.741                             : en:00:20:42.741
00:24:13.243                             : en:00:24:13.243
00:30:24.072                             : en:00:30:24.072
00:36:01.075                             : en:00:36:01.075
00:41:13.762                             : en:00:41:13.762
00:44:38.258                             : en:00:44:38.258
00:49:29.466                             : en:00:49:29.466
00:55:56.728                             : en:00:55:56.728
01:00:59.906                             : en:01:00:59.906
01:05:41.729                             : en:01:05:41.729
01:11:31.328                             : en:01:11:31.328
01:17:58.924                             : en:01:17:58.924
01:23:23.024                             : en:01:23:23.024



Un agradecimiento muy especial para nuestro amigo clasaase, por la reparación y mejora en los subtítulos en Español. 👏




Nota: Los subtítulos son del bluray, pero no vinieron bien, seguramente mas adelante alguien editara y subira los buenos sub a la pagina http://www.subdivx.com/












Todos los links son Intercambiables!



Enlaces de Mega y Fireload solo disponibles para Miembros VIP

Compra tu Membresía VIP y apoya a Club-HD!

ATENCIÓN! Tenemos TODO el material de Club-HD disponible por Mega y Fireload, enlaces 100% activos y online hasta la fecha

Llévate tus cuentas Mega PRO II gratis con tu membresía VIP!
Todos los posts vivos con links de Mega y Fireload.
Todo el material de Club-HD desbloqueado y sin publicidad.

Click Aquí para más información.


Para ver este contenido oculto, debes dar click en una de las siguientes reacciones : Like Like, Love Love, Haha Haha, Wow Wow, Sad Sad, Angry Angry


Para ver este contenido oculto, debes dar click en una de las siguientes reacciones : Like Like, Love Love, Haha Haha, Wow Wow, Sad Sad, Angry Angry


Para ver este contenido oculto, debes dar click en una de las siguientes reacciones : Like Like, Love Love, Haha Haha, Wow Wow, Sad Sad, Angry Angry
 
Última edición por un moderador:

DoomsDay Elite

Well-known member
Registro
5 Sep 2012
Mensajes
1.225
Reacciones
1.101
Puntos
113

Reputation:

versión manga con gráficos como me gustaría volver a ver 1 serie como esta
aun recuerdo los mavel comics de antes y su intro de X-MEN ,hasta alivio siento al ver que los japoneses hacen esto así que la descargare porque se que vale la pena verla gracias Master !
 

arkkangeldark

Well-known member
Registro
27 Ago 2012
Mensajes
3.445
Reacciones
576
Puntos
113
Edad
34
Ubicación
Torreon Coahuila

Reputation:

la gran calidad como siempre nunca puede faltar, vale la pena tener esta version, gracias revolver
 

travis901807

New member
Registro
28 Ago 2012
Mensajes
167
Reacciones
7
Puntos
0

Reputation:

gracias estaba esperando esta pelicula en 1080p!!! wow son los mejores!!
 

edward1080

Well-known member
Registro
23 Nov 2012
Mensajes
1.013
Reacciones
137
Puntos
63
Edad
34

Reputation:

Genial Ya estan de vuelta mis Amigos de Club HD!! y con nuevos estrenos Gracias excelente labor la de ustedes Masters
:aplausos:
 

Usuarios Que Están Viendo Este Tema (Total: 1, Miembros: 0, Invitados: 1)

Arriba